The Lord of the Rings The Fellowship of the Ring 2001 EXTENDED x264 720p Esub BluRay Dual Audio English Hindi Sadeemrdp GOPI SAHI

The Lord of the Rings: The Fellowship of the Ring (2001)

A meek Hobbit from the Shire and eight companions set out on a journey to destroy the powerful One Ring and save Middle-earth from the Dark Lord Sauron.

Director:

Peter Jackson

Writers:

J.R.R. Tolkien (novel), Fran Walsh (screenplay) |2 more credits »

8.8/10




Directed byPeter Jackson
Produced by
Screenplay by
Based onThe Fellowship of the Ring
by J. R. R. Tolkien
Starring
Music byHoward Shore
CinematographyAndrew Lesnie
Edited byJohn Gilbert
Production
companies
Distributed byNew Line Cinema[1]
Release date
  • 10 December 2001 (Odeon Leicester Square)
  • 19 December 2001 (United States)
  • 20 December 2001 (New Zealand)
Running time
178 minutes[2]
208 minutes (extended)[3]
Country
  • New Zealand[1]
  • United States[1]
LanguageEnglish
Budget$93 million[4]
Box office$887.8 million[4]




Format                         : Matroska
Format version                 : Version 4
File size                      : 1.75 GiB
Duration                       : 3 h 48 min
Overall bit rate               : 1 095 kb/s
Movie name                     : The Lord of the Rings The Fellowship of the Ring 2001 EXTENDED GOPI SAHI
Encoded date                   : UTC 2020-05-18 18:07:58
Writing application            : mkvmerge v46.0.0 ('No Deeper Escape') 32-bit
Writing library                : libebml v1.3.10 + libmatroska v1.5.2

Video
ID                             : 1
Format                         : AVC
Format/Info                    : Advanced Video Codec
Format profile                 : [email protected]
Format settings                : CABAC / 5 Ref Frames
Format settings, CABAC         : Yes
Format settings, Reference fra : 5 frames
Codec ID                       : V_MPEG4/ISO/AVC
Duration                       : 3 h 48 min
Bit rate                       : 899 kb/s
Width                          : 1 280 pixels
Height                         : 534 pixels
Display aspect ratio           : 2.40:1
Frame rate mode                : Constant
Frame rate                     : 23.976 (24000/1001) FPS
Color space                    : YUV
Chroma subsampling             : 4:2:0
Bit depth                      : 8 bits
Scan type                      : Progressive
Bits/(Pixel*Frame)             : 0.055
Stream size                    : 1.43 GiB (82%)
Title                          : GOPI SAHI
Writing library                : x264 core 157 r2935 545de2f

Audio #1
ID                             : 2
Format                         : AAC LC
Format/Info                    : Advanced Audio Codec Low Complexity
Codec ID                       : A_AAC-2
Duration                       : 3 h 48 min
Bit rate                       : 96.0 kb/s
Channel(s)                     : 2 channels
Channel layout                 : L R
Sampling rate                  : 48.0 kHz
Frame rate                     : 46.875 FPS (1024 SPF)
Compression mode               : Lossy
Delay relative to video        : -21 ms
Stream size                    : 157 MiB (9%)
Title                          : GOPI SAHI
Language                       : Hindi
Default                        : Yes
Forced                         : No

Audio #2
ID                             : 3
Format                         : AAC LC
Format/Info                    : Advanced Audio Codec Low Complexity
Codec ID                       : A_AAC-2
Duration                       : 3 h 48 min
Bit rate                       : 96.0 kb/s
Channel(s)                     : 2 channels
Channel layout                 : L R
Sampling rate                  : 48.0 kHz
Frame rate                     : 46.875 FPS (1024 SPF)
Compression mode               : Lossy
Delay relative to video        : -21 ms
Stream size                    : 157 MiB (9%)
Title                          : GOPI SAHI
Language                       : English
Default                        : No
Forced                         : No

Text
ID                             : 4
Format                         : UTF-8
Codec ID                       : S_TEXT/UTF8
Codec ID/Info                  : UTF-8 Plain Text
Duration                       : 3 h 47 min
Bit rate                       : 35 b/s
Count of elements              : 1829
Stream size                    : 58.6 KiB (0%)
Title                          : GOPI SAHI
Language                       : English
Default                        : Yes
Forced                         : No