Thappad 2020 x264 720p HD Hindi GOPI SAHI

Thappad (2020)


Thappad is a story of Amrita whose seemingly perfect life is shattered when her husband slaps her once in a party. But is one slap enough to question what a relationship stands for?

Director:

Anubhav Sinha

Writers:

Mrunmayee Lagoo (screenplay), Mrunmayee Lagoo |1 more credit »

7.1/10


Directed byAnubhav Sinha
Produced byBhushan Kumar
Krishan Kumar
Anubhav Sinha
Written byAnubhav Sinha
Mrunmayee Lagoo
StarringTaapsee Pannu
Music bySongs:
Anurag Saikia
Score:
Mangesh Dhakde
CinematographySoumik Mukherjee
Edited byYasha Ramchandani
Production
company
Benaras Media Works
T-Series
Distributed byAA Films
Release date
  • 28 February 2020[1]
Running time
142 minutes[2]
CountryIndia
LanguageHindi
Box officeest. 44.54 crore[3]



Thappad 2020 x264 720p HD Hindi GOPI SAHI

Format                         : Matroska
Format version                 : Version 4
File size                      : 1 011 MiB
Duration                       : 2 h 21 min
Overall bit rate               : 997 kb/s
Movie name                     : Thappad 2020 GOPI SAHI

Video
ID                             : 1
Format                         : AVC
Format/Info                    : Advanced Video Codec
Format profile                 : [email protected]
Format settings                : CABAC / 5 Ref Frames
Format settings, CABAC         : Yes
Format settings, Reference fra : 5 frames
Codec ID                       : V_MPEG4/ISO/AVC
Duration                       : 2 h 21 min
Bit rate                       : 899 kb/s
Width                          : 1 268 pixels
Height                         : 528 pixels
Display aspect ratio           : 2.40:1
Frame rate mode                : Constant
Frame rate                     : 24.000 FPS
Color space                    : YUV
Chroma subsampling             : 4:2:0
Bit depth                      : 8 bits
Scan type                      : Progressive
Bits/(Pixel*Frame)             : 0.056
Stream size                    : 911 MiB (90%)
Title                          : GOPI SAHI
Writing library                : x264 core 157 r2935 545de2f

Audio
ID                             : 2
Format                         : AAC LC
Format/Info                    : Advanced Audio Codec Low Complexity
Codec ID                       : A_AAC-2
Duration                       : 2 h 21 min
Bit rate                       : 96.0 kb/s
Channel(s)                     : 2 channels
Channel layout                 : L R
Sampling rate                  : 48.0 kHz
Frame rate                     : 46.875 FPS (1024 SPF)
Compression mode               : Lossy
Delay relative to video        : -21 ms
Stream size                    : 97.4 MiB (10%)
Title                          : GOPI SAHI
Language                       : Hindi
Default                        : Yes
Forced                         : No