Super 8 2011 x264 720p Esub BluRay Dual Audio English Hindi GOPI SAHI

Super 8 (2011)

 
 
During the summer of 1979, a group of friends witness a train crash and investigate subsequent unexplained events in their small town.

Director:

J.J. Abrams

Writer:

J.J. Abrams

7.0/10
331,205

Directed byJ. J. Abrams
Produced by
Written byJ. J. Abrams
Starring
Music byMichael Giacchino
CinematographyLarry Fong
Edited by
Production
company
Distributed byParamount Pictures
Release date
  • June 9, 2011 (Australia)
  • June 10, 2011 (United States)
Running time
112 minutes
CountryUnited States
LanguageEnglish
Budget$50 million[1]
Box office$260.1 million[2]


Format                         : Matroska
Format version                 : Version 4
File size                      : 876 MiB
Duration                       : 1 h 51 min
Overall bit rate               : 1 095 kb/s
Movie name                     : Super 8 2011 GOPI SAHI
Encoded date                   : UTC 2020-05-18 22:33:09
Writing application            : mkvmerge v46.0.0 ('No Deeper Escape') 32-bit
Writing library                : libebml v1.3.10 + libmatroska v1.5.2

Video
ID                             : 1
Format                         : AVC
Format/Info                    : Advanced Video Codec
Format profile                 : [email protected]
Format settings                : CABAC / 5 Ref Frames
Format settings, CABAC         : Yes
Format settings, Reference fra : 5 frames
Codec ID                       : V_MPEG4/ISO/AVC
Duration                       : 1 h 51 min
Bit rate                       : 899 kb/s
Width                          : 1 280 pixels
Height                         : 534 pixels
Display aspect ratio           : 2.40:1
Frame rate mode                : Constant
Frame rate                     : 23.976 (24000/1001) FPS
Color space                    : YUV
Chroma subsampling             : 4:2:0
Bit depth                      : 8 bits
Scan type                      : Progressive
Bits/(Pixel*Frame)             : 0.055
Stream size                    : 719 MiB (82%)
Title                          : GOPI SAHI
Writing library                : x264 core 157 r2935 545de2f

Audio #1
ID                             : 2
Format                         : AAC LC
Format/Info                    : Advanced Audio Codec Low Complexity
Codec ID                       : A_AAC-2
Duration                       : 1 h 51 min
Bit rate                       : 96.0 kb/s
Channel(s)                     : 2 channels
Channel layout                 : L R
Sampling rate                  : 48.0 kHz
Frame rate                     : 46.875 FPS (1024 SPF)
Compression mode               : Lossy
Delay relative to video        : 2 s 179 ms
Stream size                    : 77.1 MiB (9%)
Title                          : GOPI SAHI
Language                       : Hindi
Default                        : Yes
Forced                         : No

Audio #2
ID                             : 3
Format                         : AAC LC
Format/Info                    : Advanced Audio Codec Low Complexity
Codec ID                       : A_AAC-2
Duration                       : 1 h 51 min
Bit rate                       : 96.0 kb/s
Channel(s)                     : 2 channels
Channel layout                 : L R
Sampling rate                  : 48.0 kHz
Frame rate                     : 46.875 FPS (1024 SPF)
Compression mode               : Lossy
Delay relative to video        : -21 ms
Stream size                    : 77.1 MiB (9%)
Title                          : GOPI SAHI
Language                       : English
Default                        : No
Forced                         : No

Text
ID                             : 4
Format                         : UTF-8
Codec ID                       : S_TEXT/UTF8
Codec ID/Info                  : UTF-8 Plain Text
Duration                       : 1 h 48 min
Bit rate                       : 65 b/s
Count of elements              : 1461
Stream size                    : 51.8 KiB (0%)
Title                          : GOPI SAHI
Language                       : English
Default                        : Yes
Forced                         : Yes

Menu
00:00:00.000                   : :Chapter.01
00:07:01.504                   : :Chapter.02
00:11:33.276                   : :Chapter.03
00:19:25.164                   : :Chapter.04
00:26:43.727                   : :Chapter.05
00:33:36.515                   : :Chapter.06
00:40:30.511                   : :Chapter.07
00:45:42.156                   : :Chapter.08
00:51:57.323                   : :Chapter.09
00:57:00.125                   : :Chapter.10
01:02:24.366                   : :Chapter.11
01:08:12.505                   : :Chapter.12
01:13:30.907                   : :Chapter.13
01:18:33.876                   : :Chapter.14
01:25:31.335                   : :Chapter.15
01:30:25.378                   : :Chapter.16
01:38:20.353                   : :Chapter.17
01:43:37.837                   : :Chapter.18