Star Wars The Rise of Skywalker 2019 x264 720p Esub BluRay Dual Audio English Hindi GOPI SAHI

Star Wars: Episode IX - The Rise of Skywalker (2019)


The surviving members of the resistance face the First Order once again, and the legendary conflict between the Jedi and the Sith reaches its peak bringing the Skywalker saga to its end.

Director:

J.J. Abrams

Writers:

Chris Terrio (screenplay by), J.J. Abrams (screenplay by) |5 more credits »

6.7/10
309,312


Directed byJ. J. Abrams
Produced by
Screenplay by
Story by
Based onCharacters
by George Lucas
Starring
Music byJohn Williams
CinematographyDan Mindel[1]
Edited by
Production
company
Distributed byWalt Disney Studios
Motion Pictures
Release date
  • December 16, 2019 (Hollywood)
  • December 20, 2019 (United States)
Running time
142 minutes[2]
CountryUnited States
LanguageEnglish
Budget$275 million[3]
Box office$1.074 billion[4][5]


Star Wars The Rise of Skywalker 2019 x264 720p Esub BluRay Dual Audio English Hindi GOPI SAHI

Format : Matroska
Format version : Version 4 / Version 2
File size : 1.08 GiB
Duration : 2 h 22 min
Overall bit rate : 1 092 kb/s
Movie name : Star Wars The Rise of Skywalker 2019 GOPI SAHI

Video
ID : 1
Format : AVC
Format/Info : Advanced Video Codec
Format profile : [email protected]
Format settings : CABAC / 5 Ref Frames
Format settings, CABAC : Yes
Format settings, ReFrames : 5 frames
Codec ID : V_MPEG4/ISO/AVC
Duration : 2 h 21 min
Bit rate : 899 kb/s
Width : 1 280 pixels
Height : 538 pixels
Display aspect ratio : 2.40:1
Frame rate mode : Constant
Frame rate : 23.976 (24000/1001) FPS
Color space : YUV
Chroma subsampling : 4:2:0
Bit depth : 8 bits
Scan type : Progressive
Bits/(Pixel*Frame) : 0.054
Stream size : 912 MiB (82%)
Title : GOPI SAHI
Writing library : x264 core 148

Audio #1
ID : 2
Format : AAC
Format/Info : Advanced Audio Codec
Format profile : LC
Codec ID : A_AAC-2
Duration : 2 h 22 min
Bit rate : 96.0 kb/s
Channel(s) : 2 channels
Channel positions : Front: L R
Sampling rate : 48.0 kHz
Frame rate : 46.875 FPS (1024 SPF)
Compression mode : Lossy
Delay relative to video : -17 ms
Stream size : 97.7 MiB (9%)
Title : GOPI SAHI
Language : Hindi
Default : Yes
Forced : No

Audio #2
ID : 3
Format : AAC
Format/Info : Advanced Audio Codec
Format profile : LC
Codec ID : A_AAC-2
Duration : 2 h 21 min
Bit rate : 96.0 kb/s
Channel(s) : 2 channels
Channel positions : Front: L R
Sampling rate : 48.0 kHz
Frame rate : 46.875 FPS (1024 SPF)
Compression mode : Lossy
Delay relative to video : -21 ms
Stream size : 97.9 MiB (9%)
Title : GOPI SAHI
Language : English
Default : No
Forced : No

Text #1
ID : 4
Format : UTF-8
Codec ID : S_TEXT/UTF8
Codec ID/Info : UTF-8 Plain Text
Duration : 2 h 11 min
Bit rate : 51 b/s
Count of elements : 1893
Stream size : 49.9 KiB (0%)
Title : GOPI SAHI
Language : English
Default : Yes
Forced : No

Text #2
ID : 5
Format : UTF-8
Codec ID : S_TEXT/UTF8
Codec ID/Info : UTF-8 Plain Text
Duration : 1 s 585 ms
Bit rate : 131 b/s
Count of elements : 1
Stream size : 26.0 Bytes (0%)
Title : GOPI SAHI
Language : English
Default : No
Forced : No

Menu
00:00:00.000 : :Opening Logo
00:00:09.176 : :The Rise Of Skywalker
00:01:40.934 : :Kylo Ren's Quest
00:03:47.811 : :Exegol
00:06:42.903 : :Millenium Falcon Mission
00:08:26.673 : :Pursuit Of The Falcon
00:10:04.979 : :Rey's Training Course
00:12:48.142 : :General Leia
00:13:54.000 : :The Falcon's Back
00:15:17.417 : :Spy Message
00:17:13.324 : :"We Go Together"
00:19:25.122 : :Ren Reforged
00:21:28.579 : :Pasaana Festival
00:25:27.693 : :General Calrissian
00:27:14.883 : :Speeder Chase
00:30:41.548 : :Buried Secrets
00:35:49.064 : :Power Unleashed
00:41:37.912 : :Aftermath
00:43:15.259 : :"In This Till The End"
00:45:28.351 : :Meeting Zorii
00:48:24.568 : :Babu Firk's Workshop
00:54:37.566 : :Into The Destroyer
00:58:49.192 : :Revelations
01:02:54.771 : :Repercussions
01:06:23.104 : :To Kef Bir
01:09:54.607 : :Jannah
01:13:07.383 : :The Emperor's Vault
01:18:23.657 : :The Duel
01:23:41.475 : :Remembrance
01:27:02.884 : :The Final Order Begins
01:30:23.126 : :The Destiny Of A Jedi
01:35:00.820 : :Battle Plans
01:38:47.880 : :Welcome To Exegol
01:40:35.863 : :Drop Zone
01:43:03.135 : :Throne Of The Sith
01:45:27.863 : :Dark Turn
01:48:48.188 : :Dyad In The Force
01:53:27.634 : :The Galaxy Responds
01:55:30.757 : :Emperor Reborn
01:59:02.969 : :Last Chance
02:01:37.749 : :Ben
02:05:20.471 : :Victory
02:09:42.775 : :Saga's End
02:12:26.063 : :End Credits