Sonu Ke Titu Ki Sweety 2018 x264 720p Esub BluRay Hindi Sadeemrdp @ GOPI SAHI

Sonu Ke Titu Ki Sweety (2018)

Not Rated | |Comedy, Romance |23 February 2018 (USA) 

Titu is going to marry a perfect woman named Sweety. Titu's best-friend Sonu doubts Sweety's character and tries to break the marriage while Sweety tries to do opposite and which leads to war between Bromance and Romance.

Director:

Luv Ranjan
7.1/10
18,281

Directed byLuv Ranjan
Produced by
Written byRahul Mody
Luv Ranjan
Story byLuv Ranjan
Starring
Music bySongs:
Score:
Hitesh Sonik
CinematographySudhir K. Chaudhary
Edited byAkiv Ali
Production
company
Distributed byAA Films, T-series
Release date
  • 23 February 2018
Running time
138 minutes
CountryIndia
LanguageHindi
Budget24 crore (US$3.4 million)[1]
Box office152.75 crore (US$21 million)[2]
 



Sonu Ke Titu Ki Sweety 2018 x264 720p Esub BluRay Hindi Sadeemrdp @ GOPI SAHI

Format                         : Matroska
Format version                 : Version 4
File size                      : 1 015 MiB
Duration                       : 2 h 18 min
Overall bit rate               : 1 023 kb/s
Movie name                     : Sonu Ke Titu Ki Sweety 2018 GOPI SAHI
Encoded date                   : UTC 2020-05-09 09:44:56
Writing application            : mkvmerge v46.0.0 ('No Deeper Escape') 32-bit
Writing library                : libebml v1.3.10 + libmatroska v1.5.2

Video
ID                             : 1
Format                         : AVC
Format/Info                    : Advanced Video Codec
Format profile                 : [email protected]
Format settings                : CABAC / 5 Ref Frames
Format settings, CABAC         : Yes
Format settings, Reference fra : 5 frames
Codec ID                       : V_MPEG4/ISO/AVC
Duration                       : 2 h 18 min
Bit rate                       : 899 kb/s
Width                          : 1 280 pixels
Height                         : 534 pixels
Display aspect ratio           : 2.40:1
Frame rate mode                : Constant
Frame rate                     : 24.000 FPS
Color space                    : YUV
Chroma subsampling             : 4:2:0
Bit depth                      : 8 bits
Scan type                      : Progressive
Bits/(Pixel*Frame)             : 0.055
Stream size                    : 892 MiB (88%)
Title                          : GOPI SAHI
Writing library                : x264 core 157 r2935 545de2f
Encoding settings              : cabac=1 / ref=5 / deblock=1:0:0 / analyse=0x3:0x133 / me=umh / subme=10 / psy=1 / psy_rd=1.00:0.00 / mixed_ref=1 / me_range=24 / chroma_me=1 / trellis=2 / 8x8dct=1 / cqm=0 / deadzone=21,11 / fast_pskip=1 / chroma_qp_offset=-2 / threads=17 / lookahead_threads=1 / sliced_threads=0 / nr=0 / decimate=1 / interlaced=0 / bluray_compat=0 / constrained_intra=0 / bframes=5 / b_pyramid=2 / b_adapt=2 / b_bias=0 / direct=3 / weightb=1 / open_gop=0 / weightp=2 / keyint=240 / keyint_min=24 / scenecut=40 / intra_refresh=0 / rc_lookahead=60 / rc=2pass / mbtree=1 / bitrate=899 / ratetol=1.0 / qcomp=0.60 / qpmin=0 / qpmax=69 / qpstep=4 / cplxblur=20.0 / qblur=0.5 / vbv_maxrate=62500 / vbv_bufsize=78125 / nal_hrd=none / filler=0 / ip_ratio=1.40 / aq=1:1.00
Language                       : Hindi
Default                        : Yes
Forced                         : No
Color range                    : Limited
Color primaries                : BT.709
Transfer characteristics       : BT.709
Matrix coefficients            : BT.709

Audio
ID                             : 2
Format                         : AAC LC
Format/Info                    : Advanced Audio Codec Low Complexity
Codec ID                       : A_AAC-2
Duration                       : 2 h 18 min
Bit rate                       : 96.0 kb/s
Channel(s)                     : 2 channels
Channel layout                 : L R
Sampling rate                  : 48.0 kHz
Frame rate                     : 46.875 FPS (1024 SPF)
Compression mode               : Lossy
Delay relative to video        : -21 ms
Stream size                    : 95.1 MiB (9%)
Title                          : GOPI SAHI
Language                       : Hindi
Default                        : Yes
Forced                         : No

Text #1
ID                             : 3
Format                         : PGS
Muxing mode                    : zlib
Codec ID                       : S_HDMV/PGS
Codec ID/Info                  : Picture based subtitle format used on BDs/HD-DVDs
Duration                       : 2 h 14 min
Bit rate                       : 36.5 kb/s
Count of elements              : 4314
Stream size                    : 35.2 MiB (3%)
Title                          : GOPI SAHI
Language                       : English
Default                        : Yes
Forced                         : No

Text #2
ID                             : 4
Format                         : PGS
Muxing mode                    : zlib
Codec ID                       : S_HDMV/PGS
Codec ID/Info                  : Picture based subtitle format used on BDs/HD-DVDs
Duration                       : 2 h 14 min
Bit rate                       : 21.9 kb/s
Count of elements              : 4263
Stream size                    : 21.1 MiB (2%)
Title                          : GOPI SAHI
Language                       : English
Default                        : No
Forced                         : No