Shaolin Wooden Men 1976 x264 720p Esub BluRay Dual Audio Chinese Hindi Sadeemrdp GOPI SAHI

Shaolin Wooden Men (1976)

Shao Lin mu ren xiang (original title)

After witnessing the murder of his father, Little Mute trains in Shaolin Temple for revenge and is taught by various teachers, one of which is clandestine.

Director:

Chi-Hwa Chen

Writer:

Hsin Chin
6.5/10


Directed byChen Chi-Hwa
Produced byLo Wei
Written byGam Yam
StarringJackie Chan
Chiang Kam
Hwang Jang Lee
Kam Kong
Yuen Biao
CinematographyChan Chung Yuen
Distributed byLo Wei Productions
Release date
  • 10 November 1976
Running time
90 minutes
CountryHong Kong
LanguageMandarin

Shaolin Wooden Men 1976 x264 720p Esub BluRay Dual Audio Hindi Chinese Sadeemrdp GOPI SAHI
Format                         : Matroska
Format version                 : Version 4
File size                      : 976 MiB
Duration                       : 1 h 47 min
Overall bit rate mode          : Variable
Overall bit rate               : 1 273 kb/s
Movie name                     : Shaolin Wooden Men 1976 GOPI SAHI
Encoded date                   : UTC 2020-05-12 14:29:05
Writing application            : mkvmerge v46.0.0 ('No Deeper Escape') 32-bit
Writing library                : libebml v1.3.10 + libmatroska v1.5.2

Video
ID                             : 3
Format                         : AVC
Format/Info                    : Advanced Video Codec
Format profile                 : [email protected]
Format settings                : CABAC / 5 Ref Frames
Format settings, CABAC         : Yes
Format settings, Reference fra : 5 frames
Codec ID                       : V_MPEG4/ISO/AVC
Duration                       : 1 h 47 min
Bit rate mode                  : Variable
Bit rate                       : 1 077 kb/s
Maximum bit rate               : 25.0 Mb/s
Width                          : 1 280 pixels
Height                         : 538 pixels
Display aspect ratio           : 2.40:1
Frame rate mode                : Constant
Frame rate                     : 23.976 (24000/1001) FPS
Color space                    : YUV
Chroma subsampling             : 4:2:0
Bit depth                      : 8 bits
Scan type                      : Progressive
Bits/(Pixel*Frame)             : 0.065
Stream size                    : 826 MiB (85%)
Title                          : GOPI SAHI
Writing library                : x264 core 146 r2538 121396c

Forced                         : No

Audio #1
ID                             : 1
Format                         : AAC LC
Format/Info                    : Advanced Audio Codec Low Complexity
Codec ID                       : A_AAC-2
Duration                       : 1 h 47 min
Bit rate                       : 96.0 kb/s
Channel(s)                     : 2 channels
Channel layout                 : L R
Sampling rate                  : 48.0 kHz
Frame rate                     : 46.875 FPS (1024 SPF)
Compression mode               : Lossy
Stream size                    : 74.0 MiB (8%)
Title                          : GOPI SAHI
Language                       : Hindi
Default                        : Yes
Forced                         : No

Audio #2
ID                             : 2
Format                         : AAC LC
Format/Info                    : Advanced Audio Codec Low Complexity
Codec ID                       : A_AAC-2
Duration                       : 1 h 47 min
Bit rate                       : 96.0 kb/s
Channel(s)                     : 2 channels
Channel layout                 : L R
Sampling rate                  : 48.0 kHz
Frame rate                     : 46.875 FPS (1024 SPF)
Compression mode               : Lossy
Delay relative to video        : 9 ms
Stream size                    : 73.8 MiB (8%)
Title                          : GOPI SAHI
Language                       : Chinese
Default                        : No
Forced                         : No

Text
ID                             : 4
Format                         : UTF-8
Codec ID                       : S_TEXT/UTF8
Codec ID/Info                  : UTF-8 Plain Text
Duration                       : 1 h 46 min
Bit rate                       : 29 b/s
Count of elements              : 664
Stream size                    : 22.8 KiB (0%)
Title                          : GOPI SAHI
Language                       : English
Default                        : Yes
Forced                         : No