Rustom 2016 x264 720p Esub BluRay Hindi Sadeemrdp GOPI SAHI

Rustom (2016)

Not Rated | |Crime, Drama, Thriller |12 August 2016 (USA) 
 
A naval officer returns home to find out about his wife's affair. Soon, he surrenders after murdering the lover but as the case unfolds, it starts to reveal his hidden intention.
7.1/10

Directed byTinu Suresh Desai
Produced by
  • Aruna Bhatia
  • Nittin Keni
  • Akash Chawla
  • Virender Arora
  • Ishwar Kapoor
  • Shital Bhatia
Written byVipul K Rawal
Based onK. M. Nanavati vs. State of Maharashtra
Starring
Music bySongs:
Jeet Gannguli
Arko
Raghav Sachar
Ankit Tiwari
Background Score:
Surinder Sodhi
CinematographySantosh Thundiyil
Edited byShree Narayan Singh
Production
company
Distributed byZee Studio
Release date
  • 12 August 2016
CountryIndia
LanguageHindi
Budget50.28 crore[1]
Box officeest. 210.36 crore[2]





Format                         : Matroska
Format version                 : Version 4
File size                      : 1.05 GiB
Duration                       : 2 h 28 min
Overall bit rate               : 1 010 kb/s
Movie name                     : Rustom 2016 GOPI SAHI

Video
ID                             : 1
Format                         : AVC
Format/Info                    : Advanced Video Codec
Format profile                 : [email protected]
Format settings                : CABAC / 5 Ref Frames
Format settings, CABAC         : Yes
Format settings, Reference fra : 5 frames
Codec ID                       : V_MPEG4/ISO/AVC
Duration                       : 2 h 28 min
Bit rate                       : 899 kb/s
Width                          : 1 280 pixels
Height                         : 534 pixels
Display aspect ratio           : 2.40:1
Frame rate mode                : Constant
Frame rate                     : 24.000 FPS
Color space                    : YUV
Chroma subsampling             : 4:2:0
Bit depth                      : 8 bits
Scan type                      : Progressive
Bits/(Pixel*Frame)             : 0.055
Stream size                    : 957 MiB (89%)
Title                          : GOPI SAHI
Writing library                : x264 core 157 r2935 545de2f

Audio
ID                             : 2
Format                         : AAC LC
Format/Info                    : Advanced Audio Codec Low Complexity
Codec ID                       : A_AAC-2
Duration                       : 2 h 28 min
Bit rate                       : 96.0 kb/s
Channel(s)                     : 2 channels
Channel layout                 : L R
Sampling rate                  : 48.0 kHz
Frame rate                     : 46.875 FPS (1024 SPF)
Compression mode               : Lossy
Delay relative to video        : -21 ms
Stream size                    : 103 MiB (10%)
Title                          : GOPI SAHI
Language                       : Hindi
Default                        : Yes
Forced                         : No

Text
ID                             : 3
Format                         : PGS
Muxing mode                    : zlib
Codec ID                       : S_HDMV/PGS
Codec ID/Info                  : Picture based subtitle format used on BDs/HD-DVDs
Duration                       : 2 h 25 min
Bit rate                       : 30.7 kb/s
Count of elements              : 3152
Stream size                    : 32.0 MiB (3%)
Title                          : GOPI SAHI
Language                       : English
Default                        : Yes
Forced                         : No

Menu
00:00:00.000                   : :Chapter 1
00:03:57.833                   : :Chapter 2
00:06:43.500                   : :Chapter 3
00:10:23.458                   : :Chapter 4
00:18:44.208                   : :Chapter 5
00:36:41.167                   : :Chapter 6
00:40:17.958                   : :Chapter 7
00:42:13.083                   : :Chapter 8
00:50:32.833                   : :Chapter 9
01:05:25.042                   : :Chapter 10
01:08:24.917                   : :Chapter 11
01:09:40.750                   : :Chapter 12
01:15:59.542                   : :Chapter 13
01:17:38.917                   : :Chapter 14
01:39:52.417                   : :Chapter 15
01:49:16.417                   : :Chapter 16
02:10:48.833                   : :Chapter 17
02:20:08.125                   : :Chapter 18
02:24:00.792                   : :Chapter 19








MULTIUP