Rough Night 2017 x264 720p Esub BluRay Dual Audio English Hindi Sadeemrdp GOPI SAHI

Rough Night (2017)

 
Things go terribly wrong for a group of girlfriends who hire a male stripper for a bachelorette party in Miami.

Director:

Lucia Aniello
5.2/10

Directed byLucia Aniello
Produced by
Written by
  • Lucia Aniello
  • Paul W. Downs
Starring
Music byDominic Lewis
CinematographySean Porter
Edited byCraig Alpert
Production
company
Distributed bySony Pictures Releasing
Release date
Running time
101 minutes[1]
CountryUnited States
LanguageEnglish
Budget$20–26 million[2][3]
Box office$47.3 million[2]


Format                         : Matroska
Format version                 : Version 4
File size                      : 845 MiB
Duration                       : 1 h 40 min
Overall bit rate               : 1 171 kb/s
Movie name                     : Rough Night 2017 GOPI SAHI
Encoded date                   : UTC 2020-05-20 22:05:47
Writing application            : mkvmerge v46.0.0 ('No Deeper Escape') 32-bit
Writing library                : libebml v1.3.10 + libmatroska v1.5.2 / Lavf58.29.100
Cover                          : Yes
Attachments                    : cover.jpg

Video
ID                             : 3
Format                         : AVC
Format/Info                    : Advanced Video Codec
Format profile                 : [email protected]
Format settings                : CABAC / 5 Ref Frames
Format settings, CABAC         : Yes
Format settings, Reference fra : 5 frames
Codec ID                       : V_MPEG4/ISO/AVC
Duration                       : 1 h 40 min
Bit rate                       : 899 kb/s
Width                          : 1 280 pixels
Height                         : 534 pixels
Display aspect ratio           : 2.40:1
Frame rate mode                : Constant
Frame rate                     : 23.976 (24000/1001) FPS
Color space                    : YUV
Chroma subsampling             : 4:2:0
Bit depth                      : 8 bits
Scan type                      : Progressive
Bits/(Pixel*Frame)             : 0.055
Stream size                    : 648 MiB (77%)
Title                          : GOPI SAHI
Writing library                : x264 core 157 r2935 545de2f

Audio #1
ID                             : 4
Format                         : AAC LC
Format/Info                    : Advanced Audio Codec Low Complexity
Codec ID                       : A_AAC-2
Duration                       : 1 h 40 min
Bit rate                       : 96.0 kb/s
Channel(s)                     : 2 channels
Channel layout                 : L R
Sampling rate                  : 48.0 kHz
Frame rate                     : 46.875 FPS (1024 SPF)
Compression mode               : Lossy
Delay relative to video        : 1 s 979 ms
Stream size                    : 69.4 MiB (8%)
Title                          : GOPI SAHI
Language                       : Hindi
Default                        : Yes
Forced                         : No

Audio #2
ID                             : 5
Format                         : AAC LC
Format/Info                    : Advanced Audio Codec Low Complexity
Codec ID                       : A_AAC-2
Duration                       : 1 h 40 min
Bit rate                       : 96.0 kb/s
Channel(s)                     : 2 channels
Channel layout                 : L R
Sampling rate                  : 48.0 kHz
Frame rate                     : 46.875 FPS (1024 SPF)
Compression mode               : Lossy
Delay relative to video        : 19 ms
Stream size                    : 69.3 MiB (8%)
Title                          : GOPI SAHI
Language                       : English
Default                        : No
Forced                         : No

Text #1
ID                             : 1
Format                         : PGS
Muxing mode                    : zlib
Codec ID                       : S_HDMV/PGS
Codec ID/Info                  : Picture based subtitle format used on BDs/HD-DVDs
Duration                       : 1 h 39 min
Bit rate                       : 66.3 kb/s
Count of elements              : 3990
Stream size                    : 47.0 MiB (6%)
Title                          : GOPI SAHI
Language                       : English
Default                        : No
Forced                         : No

Text #2
ID                             : 2
Format                         : PGS
Muxing mode                    : zlib
Codec ID                       : S_HDMV/PGS
Codec ID/Info                  : Picture based subtitle format used on BDs/HD-DVDs
Duration                       : 1 h 39 min
Bit rate                       : 81.5 kb/s
Count of elements              : 4792
Stream size                    : 58.2 MiB (7%)
Title                          : GOPI SAHI
Language                       : English
Default                        : No
Forced                         : No

Menu
00:00:00.000                   : :Chapter 1
00:04:44.201                   : :Chapter 2
00:08:05.360                   : :Chapter 3
00:15:19.210                   : :Chapter 4
00:25:46.378                   : :Chapter 5
00:34:27.107                   : :Chapter 6
00:39:51.180                   : :Chapter 7
00:43:11.047                   : :Chapter 8
00:46:26.742                   : :Chapter 9
00:49:09.613                   : :Chapter 10
00:53:44.722                   : :Chapter 11
00:59:37.741                   : :Chapter 12
01:02:54.020                   : :Chapter 13
01:11:56.646                   : :Chapter 14
01:22:55.762                   : :Chapter 15
01:30:58.119                   : :Chapter 16