Quantum Of Solace 2008 x264 720p Esub BluRay Dual Audio English Hindi Sadeemrdp GOPI SAHI

Quantum of Solace (2008)

James Bond descends into mystery as he tries to stop a mysterious organisation from eliminating a country's most valuable resource.

Director:

Marc Forster

6.6/10
393,271

Directed byMarc Forster
Produced by
Written by
Based onJames Bond
by Ian Fleming
Starring
Music byDavid Arnold
CinematographyRoberto Schaefer
Edited by
Production
company
Distributed bySony Pictures Releasing[1]
Release date
  • 29 October 2008 (London)
  • 31 October 2008 (United Kingdom)
  • 14 November 2008 (United States)
Running time
106 minutes
Country
  • United Kingdom[2]
  • United States[2]
LanguageEnglish
Budget$200–230 million[3][4]
Box office$589.5 million[3]

 
Quantum Of Solace 2008 x264 720p Esub BluRay Dual Audio English Hindi Sadeemrdp GOPI SAHI
Format                         : Matroska
Format version                 : Version 4
File size                      : 845 MiB
Duration                       : 1 h 46 min
Overall bit rate               : 1 111 kb/s
Movie name                     : Quantum Of Solace 2008 GOPI SAHI
Encoded date                   : UTC 2020-05-10 21:47:52
Writing application            : mkvmerge v46.0.0 ('No Deeper Escape') 32-bit
Writing library                : libebml v1.3.10 + libmatroska v1.5.2

Video
ID                             : 1
Format                         : AVC
Format/Info                    : Advanced Video Codec
Format profile                 : [email protected]
Format settings                : CABAC / 5 Ref Frames
Format settings, CABAC         : Yes
Format settings, Reference fra : 5 frames
Codec ID                       : V_MPEG4/ISO/AVC
Duration                       : 1 h 46 min
Bit rate                       : 899 kb/s
Width                          : 1 280 pixels
Height                         : 532 pixels
Display aspect ratio           : 2.40:1
Frame rate mode                : Constant
Frame rate                     : 23.976 (24000/1001) FPS
Color space                    : YUV
Chroma subsampling             : 4:2:0
Bit depth                      : 8 bits
Scan type                      : Progressive
Bits/(Pixel*Frame)             : 0.055
Stream size                    : 683 MiB (81%)
Title                          : GOPI SAHI
Writing library                : x264 core 157 r2935 545de2f

Audio #1
ID                             : 2
Format                         : AAC LC
Format/Info                    : Advanced Audio Codec Low Complexity
Codec ID                       : A_AAC-2
Duration                       : 1 h 46 min
Bit rate                       : 96.0 kb/s
Channel(s)                     : 2 channels
Channel layout                 : L R
Sampling rate                  : 48.0 kHz
Frame rate                     : 46.875 FPS (1024 SPF)
Compression mode               : Lossy
Delay relative to video        : -11 ms
Stream size                    : 73.2 MiB (9%)
Title                          : GOPI SAHI
Language                       : Hindi
Default                        : Yes
Forced                         : No

Audio #2
ID                             : 3
Format                         : AAC LC
Format/Info                    : Advanced Audio Codec Low Complexity
Codec ID                       : A_AAC-2
Duration                       : 1 h 46 min
Bit rate                       : 96.0 kb/s
Channel(s)                     : 2 channels
Channel layout                 : L R
Sampling rate                  : 48.0 kHz
Frame rate                     : 46.875 FPS (1024 SPF)
Compression mode               : Lossy
Delay relative to video        : 233 ms
Stream size                    : 73.2 MiB (9%)
Title                          : GOPI SAHI
Language                       : English
Default                        : No
Forced                         : No

Text #1
ID                             : 4
Format                         : PGS
Muxing mode                    : zlib
Codec ID                       : S_HDMV/PGS
Codec ID/Info                  : Picture based subtitle format used on BDs/HD-DVDs
Duration                       : 1 h 43 min
Bit rate                       : 22.2 kb/s
Count of elements              : 2018
Stream size                    : 16.5 MiB (2%)
Title                          : GOPI SAHI
Language                       : Hindi
Default                        : Yes
Forced                         : Yes

Text #2
ID                             : 5
Format                         : PGS
Muxing mode                    : zlib
Codec ID                       : S_HDMV/PGS
Codec ID/Info                  : Picture based subtitle format used on BDs/HD-DVDs
Duration                       : 1 h 40 min
Bit rate                       : 33.8 kb/s
Count of elements              : 2378
Stream size                    : 24.3 MiB (3%)
Title                          : GOPI SAHI
Language                       : English
Default                        : No
Forced                         : No