Players 2012 x264 720p BluRay Hindi Sadeemrdp @ GOPI SAHI

Players (2012)


Two thieves, a magician, a computer hacker, a wannabe actor and a explosives expert plan a robbery to fulfill the dream of Victor Braganza. Will they be successful or will destiny have something different for them?

Writers:

Nikhat Bhatty (story), Bhaskar Hazarika (story) |3 more credits »
4.1/10


Directed byAbbas-Mustan
Produced byPappu Vaswani
Mohammed Burmawala
Abbas-Mustan
Ajit Andhare
Written bySudip Sharma (dialogue)
Screenplay byRohit Jugraj
Sudip Sharma
Story byOriginal story:
Troy Kennedy Martin
Story adapted:
Nikhat Bhatty
Bhaskar Hazarika
Based onThe Italian Job
by Peter Collinson
StarringAbhishek Bachchan
Bobby Deol
Vinod Khanna
Bipasha Basu
Neil Nitin Mukesh
Sonam Kapoor
Sikandar Kher
Omi Vaidya
Music byOriginal songs:
Pritam
Background score:
Sandeep Shirodkar
CinematographyRavi Yadav
Edited byHussain Burmawala
Production
company
Distributed byViacom 18 Motion Pictures
Release date
  • 6 January 2012
Running time
163 minutes
LanguageHindi
Russian
Budget70 crore (US$9.8 million) [1]
Box office75 crore (US$11 million)[2]


Players 2012 x264 720p BluRay Hindi Sadeemrdp @ GOPI SAHI

Format                         : Matroska
Format version                 : Version 4
File size                      : 1.13 GiB
Duration                       : 2 h 42 min
Overall bit rate               : 997 kb/s
Movie name                     : Players 2012 GOPI SAHI
Encoded date                   : UTC 2020-05-10 10:06:45
Writing application            : mkvmerge v46.0.0 ('No Deeper Escape') 32-bit
Writing library                : libebml v1.3.10 + libmatroska v1.5.2

Video
ID                             : 1
Format                         : AVC
Format/Info                    : Advanced Video Codec
Format profile                 : [email protected]
Format settings                : CABAC / 5 Ref Frames
Format settings, CABAC         : Yes
Format settings, Reference fra : 5 frames
Codec ID                       : V_MPEG4/ISO/AVC
Duration                       : 2 h 42 min
Bit rate                       : 899 kb/s
Width                          : 1 280 pixels
Height                         : 534 pixels
Display aspect ratio           : 2.40:1
Frame rate mode                : Constant
Frame rate                     : 24.000 FPS
Color space                    : YUV
Chroma subsampling             : 4:2:0
Bit depth                      : 8 bits
Scan type                      : Progressive
Bits/(Pixel*Frame)             : 0.055
Stream size                    : 1.02 GiB (90%)
Title                          : GOPI SAHI
Writing library                : x264 core 157 r2935 545de2f

Audio
ID                             : 2
Format                         : AAC LC
Format/Info                    : Advanced Audio Codec Low Complexity
Codec ID                       : A_AAC-2
Duration                       : 2 h 42 min
Bit rate                       : 96.0 kb/s
Channel(s)                     : 2 channels
Channel layout                 : L R
Sampling rate                  : 48.0 kHz
Frame rate                     : 46.875 FPS (1024 SPF)
Compression mode               : Lossy
Delay relative to video        : -21 ms
Stream size                    : 112 MiB (10%)
Title                          : GOPI SAHI
Language                       : Hindi
Default                        : Yes
Forced                         : No