Pet Sematary 2019 x264 720p Esub BluRay Dual Audio English Hindi Sadeemrdp GOPI SAHI


Pet Sematary (2019)


Dr. Louis Creed and his wife, Rachel, relocate from Boston to rural Maine with their two young children. The couple soon discover a mysterious burial ground hidden deep in the woods near their new home.

Writers:

Stephen King (based on the novel by), Matt Greenberg (screen story by) |1 more credit »

5.7/10
73,589

Directed by
  • Kevin Kölsch
  • Dennis Widmyer
Produced by
Screenplay byJeff Buhler
Story by
Based on
Starring
Music byChristopher Young
CinematographyLaurie Rose
Edited bySarah Broshar
Production
company
Distributed byParamount Pictures
Release date
  • March 16, 2019 (SXSW)
  • April 5, 2019 (United States)
Running time
101 minutes[1]
CountryUnited States
LanguageEnglish
Budget$21 million[2]
Box office$113.1 million[2]

Format                         : Matroska
Format version                 : Version 4
File size                      : 805 MiB
Duration                       : 1 h 40 min
Overall bit rate               : 1 116 kb/s
Movie name                     : Pet Sematary 2019 GOPI SAHI

Video
ID                             : 1
Format                         : AVC
Format/Info                    : Advanced Video Codec
Format profile                 : [email protected]
Format settings                : CABAC / 5 Ref Frames
Format settings, CABAC         : Yes
Format settings, Reference fra : 5 frames
Codec ID                       : V_MPEG4/ISO/AVC
Duration                       : 1 h 40 min
Bit rate                       : 899 kb/s
Width                          : 1 280 pixels
Height                         : 536 pixels
Display aspect ratio           : 2.40:1
Frame rate mode                : Constant
Frame rate                     : 23.976 (24000/1001) FPS
Color space                    : YUV
Chroma subsampling             : 4:2:0
Bit depth                      : 8 bits
Scan type                      : Progressive
Bits/(Pixel*Frame)             : 0.055
Stream size                    : 648 MiB (80%)
Title                          : GOPI SAHI
Writing library                : x264 core 157 r2935 545de2f

Audio #1
ID                             : 2
Format                         : AAC LC
Format/Info                    : Advanced Audio Codec Low Complexity
Codec ID                       : A_AAC-2
Duration                       : 1 h 40 min
Bit rate                       : 96.0 kb/s
Channel(s)                     : 2 channels
Channel layout                 : L R
Sampling rate                  : 48.0 kHz
Frame rate                     : 46.875 FPS (1024 SPF)
Compression mode               : Lossy
Delay relative to video        : 825 ms
Stream size                    : 69.4 MiB (9%)
Title                          : GOPI SAHI
Language                       : Hindi
Default                        : Yes
Forced                         : No

Audio #2
ID                             : 3
Format                         : AAC LC
Format/Info                    : Advanced Audio Codec Low Complexity
Codec ID                       : A_AAC-2
Duration                       : 1 h 40 min
Bit rate                       : 96.0 kb/s
Channel(s)                     : 2 channels
Channel layout                 : L R
Sampling rate                  : 48.0 kHz
Frame rate                     : 46.875 FPS (1024 SPF)
Compression mode               : Lossy
Delay relative to video        : -21 ms
Stream size                    : 69.5 MiB (9%)
Title                          : GOPI SAHI
Language                       : English
Default                        : No
Forced                         : No

Text #1
ID                             : 4
Format                         : PGS
Muxing mode                    : zlib
Codec ID                       : S_HDMV/PGS
Codec ID/Info                  : Picture based subtitle format used on BDs/HD-DVDs
Duration                       : 1 h 38 min
Bit rate                       : 17.3 kb/s
Count of elements              : 1760
Stream size                    : 12.1 MiB (2%)
Title                          : GOPI SAHI
Language                       : Hindi
Default                        : Yes
Forced                         : Yes

Text #2
ID                             : 5
Format                         : PGS
Muxing mode                    : zlib
Codec ID                       : S_HDMV/PGS
Codec ID/Info                  : Picture based subtitle format used on BDs/HD-DVDs
Duration                       : 1 h 32 min
Bit rate                       : 22.9 kb/s
Count of elements              : 1712
Stream size                    : 15.2 MiB (2%)
Title                          : GOPI SAHI
Language                       : English
Default                        : No
Forced                         : No

Text #3
ID                             : 6
Format                         : PGS
Muxing mode                    : zlib
Codec ID                       : S_HDMV/PGS
Codec ID/Info                  : Picture based subtitle format used on BDs/HD-DVDs
Duration                       : 1 h 36 min
Bit rate                       : 31.0 kb/s
Count of elements              : 2423
Stream size                    : 21.4 MiB (3%)
Title                          : GOPI SAHI
Language                       : English
Default                        : No
Forced                         : No

Menu
00:00:00.000                   : :Chapter 1
00:07:16.353                   : :Chapter 2
00:12:14.025                   : :Chapter 3
00:19:38.386                   : :Chapter 4
00:25:30.070                   : :Chapter 5
00:30:09.725                   : :Chapter 6
00:35:18.325                   : :Chapter 7
00:46:02.843                   : :Chapter 8
00:50:44.792                   : :Chapter 9
00:57:47.965                   : :Chapter 10
01:06:57.722                   : :Chapter 11
01:14:12.573                   : :Chapter 12
01:22:52.050                   : :Chapter 13
01:32:19.909                   : :Chapter 14
01:36:41.546                   : :Chapter 15