Once Upon a Time in China and America 1997 x264 720p Esub BluRay Dual Audio Hindi Chinese Sadeemrdp GOPI SAHI

Once Upon a Time in China and America (1997)

Wong fei hung VI: Sai wik hung see (original title)

Following an ambush in his visit to America, Wong Fei-hung becomes separated from his fellow travelers and suffers memory loss.

Director:

Sammo Kam-Bo Hung (as Sammo Hung)

Writers:

Cheuk-Hon Szeto (as Szeto Chek Hon), Sharon Hui |3 more credits »

6.4/10
3,415


Traditional黃飛鴻之西域雄獅
Simplified黄飞鸿之西域雄狮
MandarinHuáng Fēihǒng Zhī Xīyù Xíongshī
CantoneseWong4 Fei1-hung4 Zi1 Sai1-waak6 Hung4-si1
Directed bySammo Hung
Lau Kar-wing
Produced byTsui Hark
Written bySze-to Cheuk-hon
Shut Mei-yee
Sharon Hui
Philip Kwok
So Man-sing
StarringJet Li
Rosamund Kwan
Hung Yan-yan
Jeff Wolfe
Power Chan
Music byLowell Lo
CinematographyWalter Gregg
Lam Fai-tai
Koo Kwok-wah
Edited byMarco Mak
Angie Lam
Production
company
Distributed byChina Star Entertainment Group
Release date
  • 1 February 1997
Running time
98 minutes
CountryHong Kong
LanguageCantonese
Mandarin
English
Box officeHK$30,268,415.00 (Hong Kong)[1]

Format                         : Matroska
Format version                 : Version 4
File size                      : 785 MiB
Duration                       : 1 h 40 min
Overall bit rate               : 1 096 kb/s
Movie name                     : Once Upon a Time in China and America 1997 GOPI SAHI
Encoded date                   : UTC 2020-05-19 16:59:58
Writing application            : mkvmerge v46.0.0 ('No Deeper Escape') 32-bit
Writing library                : libebml v1.3.10 + libmatroska v1.5.2

Video
ID                             : 1
Format                         : AVC
Format/Info                    : Advanced Video Codec
Format profile                 : [email protected]
Format settings                : CABAC / 5 Ref Frames
Format settings, CABAC         : Yes
Format settings, Reference fra : 5 frames
Codec ID                       : V_MPEG4/ISO/AVC
Duration                       : 1 h 40 min
Bit rate                       : 899 kb/s
Width                          : 1 280 pixels
Height                         : 536 pixels
Display aspect ratio           : 2.40:1
Frame rate mode                : Constant
Frame rate                     : 23.976 (24000/1001) FPS
Color space                    : YUV
Chroma subsampling             : 4:2:0
Bit depth                      : 8 bits
Scan type                      : Progressive
Bits/(Pixel*Frame)             : 0.055
Stream size                    : 644 MiB (82%)
Title                          : GOPI SAHI
Writing library                : x264 core 157 r2935 545de2f

Audio #1
ID                             : 2
Format                         : AAC LC
Format/Info                    : Advanced Audio Codec Low Complexity
Codec ID                       : A_AAC-2
Duration                       : 1 h 40 min
Bit rate                       : 96.0 kb/s
Channel(s)                     : 2 channels
Channel layout                 : L R
Sampling rate                  : 48.0 kHz
Frame rate                     : 46.875 FPS (1024 SPF)
Compression mode               : Lossy
Delay relative to video        : -13 ms
Stream size                    : 68.7 MiB (9%)
Title                          : GOPI SAHI
Language                       : Hindi
Default                        : Yes
Forced                         : No

Audio #2
ID                             : 3
Format                         : AAC LC
Format/Info                    : Advanced Audio Codec Low Complexity
Codec ID                       : A_AAC-2
Duration                       : 1 h 40 min
Bit rate                       : 96.0 kb/s
Channel(s)                     : 1 channel
Channel layout                 : C
Sampling rate                  : 48.0 kHz
Frame rate                     : 46.875 FPS (1024 SPF)
Compression mode               : Lossy
Delay relative to video        : -12 ms
Stream size                    : 68.9 MiB (9%)
Title                          : GOPI SAHI
Language                       : Chinese
Default                        : No
Forced                         : No

Text
ID                             : 4
Format                         : VobSub
Muxing mode                    : zlib
Codec ID                       : S_VOBSUB
Codec ID/Info                  : Picture based subtitle format used on DVDs
Duration                       : 1 h 35 min
Bit rate                       : 4 000 b/s
Count of elements              : 571
Stream size                    : 2.72 MiB (0%)
Title                          : GOPI SAHI
Language                       : English
Default                        : Yes
Forced                         : No

Menu
00:00:00.000                   : :Chapter 1
00:14:38.795                   : :Chapter 2
00:24:20.376                   : :Chapter 3
00:34:52.882                   : :Chapter 4
00:45:16.047                   : :Chapter 5
00:59:49.753                   : :Chapter 6
01:09:50.937                   : :Chapter 7
01:15:18.472                   : :Chapter 8
01:23:45.479                   : :Chapter 9
01:34:32.000                   : :Chapter 10