Ok Jaanu 2017 x264 720p Esub BluRay Hindi Sadeemrdp GOPI SAHI


OK Jaanu (2017)

Not Rated | |Drama, Romance |13 January 2017 (USA)

Adi and Tara move to Mumbai to pursue their dreams. A chance meeting sparks off a heady, no strings attached romance until their careers pull them apart. Will ambition prevail over matters of the heart?

Director:

Shaad Ali

Writers:

Mani Ratnam (story and screenplay), Gulzar (dialogue)

5.2/10
3,465

Directed byShaad Ali
Produced byMani Ratnam
Karan Johar
Apoorva Mehta
Hiroo Yash Johar
Written byGulzar (Dialogues)
Screenplay byMani Ratnam
Story byMani Ratnam
Based onO Kadhal Kanmani
by Mani Ratnam
StarringAditya Roy Kapur
Shraddha Kapoor
Naseeruddin Shah
Leela Samson
Music byA. R. Rahman
CinematographyRavi K. Chandran
Edited byA. Sreekar Prasad
Production
company
Distributed byFox Star Studios
Release date
  • 13 January 2017
Running time
137 minutes
CountryIndia
LanguageHindi
Budget27 crore[1]
Box officeest. 41.04 crore[2]



Format                         : Matroska
Format version                 : Version 4
File size                      : 984 MiB
Duration                       : 2 h 16 min
Overall bit rate               : 1 011 kb/s
Movie name                     : Ok Jaanu 2017 GOPI SAHI
Encoded date                   : UTC 2020-05-12 23:05:51
Writing application            : mkvmerge v46.0.0 ('No Deeper Escape') 32-bit
Writing library                : libebml v1.3.10 + libmatroska v1.5.2

Video
ID                             : 1
Format                         : AVC
Format/Info                    : Advanced Video Codec
Format profile                 : [email protected]
Format settings                : CABAC / 5 Ref Frames
Format settings, CABAC         : Yes
Format settings, Reference fra : 5 frames
Codec ID                       : V_MPEG4/ISO/AVC
Duration                       : 2 h 16 min
Bit rate                       : 899 kb/s
Width                          : 1 280 pixels
Height                         : 534 pixels
Display aspect ratio           : 2.40:1
Frame rate mode                : Constant
Frame rate                     : 24.000 FPS
Color space                    : YUV
Chroma subsampling             : 4:2:0
Bit depth                      : 8 bits
Scan type                      : Progressive
Bits/(Pixel*Frame)             : 0.055
Stream size                    : 874 MiB (89%)
Title                          : GOPI SAHI
Writing library                : x264 core 157 r2935 545de2f

Audio
ID                             : 2
Format                         : AAC LC
Format/Info                    : Advanced Audio Codec Low Complexity
Codec ID                       : A_AAC-2
Duration                       : 2 h 16 min
Bit rate                       : 96.0 kb/s
Channel(s)                     : 2 channels
Channel layout                 : L R
Sampling rate                  : 48.0 kHz
Frame rate                     : 46.875 FPS (1024 SPF)
Compression mode               : Lossy
Delay relative to video        : -21 ms
Stream size                    : 93.9 MiB (10%)
Title                          : GOPI SAHI
Language                       : Hindi
Default                        : Yes
Forced                         : No

Text
ID                             : 3
Format                         : PGS
Muxing mode                    : zlib
Codec ID                       : S_HDMV/PGS
Codec ID/Info                  : Picture based subtitle format used on BDs/HD-DVDs
Duration                       : 2 h 3 min
Bit rate                       : 25.1 kb/s
Count of elements              : 2766
Stream size                    : 22.2 MiB (2%)
Title                          : GOPI SAHI
Language                       : English
Default                        : Yes
Forced                         : No