Night at the Museum 2006 x264 720p Esub BluRay Dual Audio English Hindi Sadeemrdp GOPI SAHI

Night at the Museum (2006)


A newly recruited night security guard at the Museum of Natural History discovers that an ancient curse causes the animals and exhibits on display to come to life and wreak havoc.

Director:

Shawn Levy

Writers:

Robert Ben Garant (screenplay), Thomas Lennon (screenplay) |3 more credits »

6.4/10
303,079

Directed byShawn Levy
Produced by
Screenplay by
Based onThe Night at the Museum
by Milan Trenc
Starring
Music byAlan Silvestri
CinematographyGuillermo Navarro
Edited byDon Zimmerman
Production
company
Distributed by20th Century Fox[1]
Release date
  • December 17, 2006 (New York City)
  • December 22, 2006 (United States)
Running time
104 minutes[1]
Country
  • United Kingdom[1]
  • United States[1],y
LanguageEnglish
Budget$110 million[2]
Box office$574.5 million[3]



Format                         : Matroska
Format version                 : Version 4
File size                      : 861 MiB
Duration                       : 1 h 48 min
Overall bit rate               : 1 108 kb/s
Movie name                     : Night at the Museum 2006 GOPI SAHI
Encoded date                   : UTC 2020-05-17 22:26:20
Writing application            : mkvmerge v46.0.0 ('No Deeper Escape') 32-bit
Writing library                : libebml v1.3.10 + libmatroska v1.5.2

Video
ID                             : 1
Format                         : AVC
Format/Info                    : Advanced Video Codec
Format profile                 : [email protected]
Format settings                : CABAC / 5 Ref Frames
Format settings, CABAC         : Yes
Format settings, Reference fra : 5 frames
Codec ID                       : V_MPEG4/ISO/AVC
Duration                       : 1 h 48 min
Bit rate                       : 899 kb/s
Width                          : 1 280 pixels
Height                         : 694 pixels
Display aspect ratio           : 1.85:1
Frame rate mode                : Constant
Frame rate                     : 23.976 (24000/1001) FPS
Color space                    : YUV
Chroma subsampling             : 4:2:0
Bit depth                      : 8 bits
Scan type                      : Progressive
Bits/(Pixel*Frame)             : 0.042
Stream size                    : 698 MiB (81%)
Title                          : GOPI SAHI
Writing library                : x264 core 157 r2935 545de2f

Audio #1
ID                             : 2
Format                         : AAC LC
Format/Info                    : Advanced Audio Codec Low Complexity
Codec ID                       : A_AAC-2
Duration                       : 1 h 48 min
Bit rate                       : 96.0 kb/s
Channel(s)                     : 2 channels
Channel layout                 : L R
Sampling rate                  : 48.0 kHz
Frame rate                     : 46.875 FPS (1024 SPF)
Compression mode               : Lossy
Delay relative to video        : -21 ms
Stream size                    : 74.9 MiB (9%)
Title                          : GOPI SAHI
Language                       : Hindi
Default                        : Yes
Forced                         : No

Audio #2
ID                             : 3
Format                         : AAC LC
Format/Info                    : Advanced Audio Codec Low Complexity
Codec ID                       : A_AAC-2
Duration                       : 1 h 48 min
Bit rate                       : 96.0 kb/s
Channel(s)                     : 2 channels
Channel layout                 : L R
Sampling rate                  : 48.0 kHz
Frame rate                     : 46.875 FPS (1024 SPF)
Compression mode               : Lossy
Delay relative to video        : -21 ms
Stream size                    : 74.9 MiB (9%)
Title                          : GOPI SAHI
Language                       : English
Default                        : No
Forced                         : No

Text
ID                             : 4
Format                         : PGS
Muxing mode                    : zlib
Codec ID                       : S_HDMV/PGS
Codec ID/Info                  : Picture based subtitle format used on BDs/HD-DVDs
Duration                       : 1 h 41 min
Bit rate                       : 33.5 kb/s
Count of elements              : 2430
Stream size                    : 24.3 MiB (3%)
Title                          : GOPI SAHI
Language                       : English
Default                        : Yes
Forced                         : No