Neerja 2016 x264 720p Esub BluRay Hindi Sadeemrdp GOPI SAHI


Neerja (2016)


Neerja is the story of the courageous Neerja Bhanot, who sacrificed her life while protecting the lives of 359 passengers on the Pan Am flight 73 in 1986. The flight was hijacked by a terrorist organization.

Director:

Ram Madhvani

Writers:

Saiwyn Quadras (story and screenplay) (as Saiwyn Qadras), Sanyuktha Chawla Shaikh (dialogue) (as Sanyukta Shaikh Chawla)
7.7/10
19,875

Directed byRam Madhvani
Produced byAtul Kasbekar
Shanti Sivaram Maini
Bling Unplugged
Fox Star Studios
Written bySaiwyn Quadras
Sanyuktha Chawla Shaikh (dialogues)
StarringSonam Kapoor
Shabana Azmi
Yogendra Tiku
Shekhar Ravjiani
Kavi Shastri
Sadh Orhan
Music byVishal Khurana
CinematographyMitesh Mirchandani
Edited byMonisha R Baldawa
Production
company
Fox Star Studios
Distributed byFox Star Studios
Release date
  • 19 February 2016
Running time
121 minutes[1]
CountryIndia
LanguageHindi
Budget₹20 crore[2]
Box officeest. ₹135.52 crore[3]


Format                         : Matroska
Format version                 : Version 4
File size                      : 880 MiB
Duration                       : 2 h 1 min
Overall bit rate               : 1 011 kb/s
Movie name                     : Neerja 2016 GOPI SAHI
Encoded date                   : UTC 2020-05-21 19:30:41
Writing application            : mkvmerge v46.0.0 ('No Deeper Escape') 32-bit
Writing library                : libebml v1.3.10 + libmatroska v1.5.2

Video
ID                             : 1
Format                         : AVC
Format/Info                    : Advanced Video Codec
Format profile                 : [email protected]
Format settings                : CABAC / 5 Ref Frames
Format settings, CABAC         : Yes
Format settings, Reference fra : 5 frames
Codec ID                       : V_MPEG4/ISO/AVC
Duration                       : 2 h 1 min
Bit rate                       : 899 kb/s
Width                          : 1 280 pixels
Height                         : 544 pixels
Display aspect ratio           : 2.35:1
Frame rate mode                : Constant
Frame rate                     : 24.000 FPS
Color space                    : YUV
Chroma subsampling             : 4:2:0
Bit depth                      : 8 bits
Scan type                      : Progressive
Bits/(Pixel*Frame)             : 0.054
Stream size                    : 782 MiB (89%)
Title                          : GOPI SAHI
Writing library                : x264 core 157 r2935 545de2f

Audio
ID                             : 2
Format                         : AAC LC
Format/Info                    : Advanced Audio Codec Low Complexity
Codec ID                       : A_AAC-2
Duration                       : 2 h 1 min
Bit rate                       : 96.0 kb/s
Channel(s)                     : 2 channels
Channel layout                 : L R
Sampling rate                  : 48.0 kHz
Frame rate                     : 46.875 FPS (1024 SPF)
Compression mode               : Lossy
Delay relative to video        : -21 ms
Stream size                    : 83.6 MiB (9%)
Title                          : GOPI SAHI
Language                       : Hindi
Default                        : Yes
Forced                         : No

Text
ID                             : 3
Format                         : PGS
Muxing mode                    : zlib
Codec ID                       : S_HDMV/PGS
Codec ID/Info                  : Picture based subtitle format used on BDs/HD-DVDs
Duration                       : 2 h 0 min
Bit rate                       : 24.5 kb/s
Count of elements              : 2697
Stream size                    : 21.1 MiB (2%)
Title                          : GOPI SAHI
Language                       : English
Default                        : Yes
Forced                         : No