Naukar Vahuti Da 2019 x264 720p Esub AmaZoNe Punjabi Sadeemrdp GOPI SAHI

Naukar Vahuti Da (2019)

 
Shivinder, a family man and an aspiring song writer, is estranged by his wife due to his inability to perform either roles well and chooses to become his in-laws' driver to be able to stay close to his wife and daughter.

Director:

Smeep Kang

Writers:

Shreya Srivastava (dialogue), Shreya Srivastava (story and screenplay) |2 more credits »
6.0/10
49



Format                         : Matroska
Format version                 : Version 4
File size                      : 859 MiB
Duration                       : 2 h 0 min
Overall bit rate               : 997 kb/s
Movie name                     : Naukar Vahuti Da 2019 GOPI SAHI
Encoded date                   : UTC 2020-05-25 10:07:43
Writing application            : mkvmerge v46.0.0 ('No Deeper Escape') 32-bit
Writing library                : libebml v1.3.10 + libmatroska v1.5.2

Video
ID                             : 1
Format                         : AVC
Format/Info                    : Advanced Video Codec
Format profile                 : [email protected]
Format settings                : CABAC / 5 Ref Frames
Format settings, CABAC         : Yes
Format settings, Reference fra : 5 frames
Codec ID                       : V_MPEG4/ISO/AVC
Duration                       : 2 h 0 min
Bit rate                       : 899 kb/s
Width                          : 1 280 pixels
Height                         : 540 pixels
Display aspect ratio           : 2.40:1
Frame rate mode                : Constant
Frame rate                     : 24.000 FPS
Color space                    : YUV
Chroma subsampling             : 4:2:0
Bit depth                      : 8 bits
Scan type                      : Progressive
Bits/(Pixel*Frame)             : 0.054
Stream size                    : 774 MiB (90%)
Title                          : GOPI SAHI
Writing library                : x264 core 157 r2935 545de2f

Audio
ID                             : 2
Format                         : AAC LC
Format/Info                    : Advanced Audio Codec Low Complexity
Codec ID                       : A_AAC-2
Duration                       : 2 h 0 min
Bit rate                       : 96.0 kb/s
Channel(s)                     : 2 channels
Channel layout                 : L R
Sampling rate                  : 48.0 kHz
Frame rate                     : 46.875 FPS (1024 SPF)
Compression mode               : Lossy
Delay relative to video        : -21 ms
Stream size                    : 82.6 MiB (10%)
Title                          : GOPI SAHI
Language                       : Panjabi
Default                        : Yes
Forced                         : No

Text
ID                             : 3
Format                         : UTF-8
Codec ID                       : S_TEXT/UTF8
Codec ID/Info                  : UTF-8 Plain Text
Duration                       : 1 h 58 min
Bit rate                       : 94 b/s
Count of elements              : 2371
Stream size                    : 81.9 KiB (0%)
Title                          : GOPI SAHI
Language                       : English
Default                        : Yes
Forced                         : No