Mere Brother Ko Dulhan 2011 x264 720p Esub BluRay Hindi Sadeemrdp @ GOPI SAHI


Mere Brother Ki Dulhan (2011)

Not Rated | |Comedy, Family, Romance |9 September 2011 (USA)

A quirky rom-com where Kush finds the ideal Indian bride Dimple for his brother Luv and a series of comical and unpredictable events follow.

Director:

Ali Abbas Zafar

5.8/10

Directed byAli Abbas Zafar
Produced byAditya Chopra
Written byAli Abbas Zafar
StarringKatrina Kaif
Imran Khan
Ali Zafar
Tara D'Souza
Music bySohail Sen
CinematographySudeep Chatterjee
Edited byRitesh Soni
Production
company
Distributed byYash Raj Films
Release date
  • 9 September 2011
Running time
145 minutes
CountryIndia
LanguageHindi
Budget₹21 crore[1]
Box office₹85.6 crore[2]



Mere Brother Ko Dulhan 2011 x264 720p Esub BluRay Hindi Sadeemrdp @ GOPI SAHI

Format                         : Matroska
Format version                 : Version 4
File size                      : 1 021 MiB
Duration                       : 2 h 19 min
Overall bit rate               : 1 024 kb/s
Movie name                     : Mere Brother Ko Dulhan 2011 GOPI SAHI
Encoded date                   : UTC 2020-05-08 20:08:22
Writing application            : mkvmerge v46.0.0 ('No Deeper Escape') 32-bit
Writing library                : libebml v1.3.10 + libmatroska v1.5.2

Video
ID                             : 1
Format                         : AVC
Format/Info                    : Advanced Video Codec
Format profile                 : [email protected]
Format settings                : CABAC / 5 Ref Frames
Format settings, CABAC         : Yes
Format settings, Reference fra : 5 frames
Codec ID                       : V_MPEG4/ISO/AVC
Duration                       : 2 h 19 min
Bit rate                       : 899 kb/s
Width                          : 1 280 pixels
Height                         : 544 pixels
Display aspect ratio           : 2.35:1
Frame rate mode                : Constant
Frame rate                     : 24.000 FPS
Color space                    : YUV
Chroma subsampling             : 4:2:0
Bit depth                      : 8 bits
Scan type                      : Progressive
Bits/(Pixel*Frame)             : 0.054
Stream size                    : 896 MiB (88%)
Title                          : GOPI SAHI
Writing library                : x264 core 157 r2935 545de2f

Audio
ID                             : 2
Format                         : AAC LC
Format/Info                    : Advanced Audio Codec Low Complexity
Codec ID                       : A_AAC-2
Duration                       : 2 h 19 min
Bit rate                       : 96.0 kb/s
Channel(s)                     : 2 channels
Channel layout                 : L R
Sampling rate                  : 48.0 kHz
Frame rate                     : 46.875 FPS (1024 SPF)
Compression mode               : Lossy
Delay relative to video        : -21 ms
Stream size                    : 95.9 MiB (9%)
Title                          : GOPI SAHI
Language                       : Hindi
Default                        : Yes
Forced                         : No

Text #1
ID                             : 3
Format                         : PGS
Muxing mode                    : zlib
Codec ID                       : S_HDMV/PGS
Codec ID/Info                  : Picture based subtitle format used on BDs/HD-DVDs
Duration                       : 2 h 14 min
Bit rate                       : 37.8 kb/s
Count of elements              : 4528
Stream size                    : 36.5 MiB (4%)
Title                          : GOPI SAHI
Language                       : English
Default                        : Yes
Forced                         : Yes

Text #2
ID                             : 4
Format                         : PGS
Muxing mode                    : zlib
Codec ID                       : S_HDMV/PGS
Codec ID/Info                  : Picture based subtitle format used on BDs/HD-DVDs
Duration                       : 2 h 14 min
Bit rate                       : 20.0 kb/s
Count of elements              : 4526
Stream size                    : 19.3 MiB (2%)
Title                          : GOPI SAHI
Language                       : Arabic
Default                        : No
Forced                         : No