Life of Pi 2012 x264 720p Esub BluRay Dual Audio English Hindi Telugu Tamil GOPISAHI

Life of Pi (2012)

A young man who survives a disaster at sea is hurtled into an epic journey of adventure and discovery. While cast away, he forms an unexpected connection with another survivor: a fearsome Bengal tiger.

Director:

Ang Lee

Writers:

Yann Martel (novel), David Magee (screenplay)

7.9/10

Directed byAng Lee
Produced by
Screenplay byDavid Magee
Based onLife of Pi
by Yann Martel
Starring
Music byMychael Danna
CinematographyClaudio Miranda
Edited byTim Squyres
Production
company
Distributed by20th Century Fox
Release date
  • September 28, 2012 (NYFF)
  • November 21, 2012 (United States)
Running time
127 minutes[2]
CountryUnited States[3][4][5][6][7]
United Kingdom[8]
Canada[8]
Australia[9]
Taiwan[9]
LanguageEnglish
Tamil
French
Budget$120 million[10]
Box office$609 million[10


Life of Pi 2012 x264 720p Esub BluRay Dual Audio English Hindi Telugu Tamil GOPISAHI


Format                         : Matroska

Format version                 : Version 4

File size                      : 1.24 GiB

Duration                       : 2 h 6 min

Overall bit rate               : 1 403 kb/s

Movie name                     : Life of Pi 2012 GOPISAHI


Video

Format                         : AVC

Format/Info                    : Advanced Video Codec

Format profile                 : [email protected]

Format settings                : CABAC / 9 Ref Frames

Format settings, CABAC         : Yes

Format settings, Reference fra : 9 frames

Codec ID                       : V_MPEG4/ISO/AVC

Duration                       : 2 h 6 min

Bit rate                       : 1 032 kb/s

Width                          : 1 280 pixels

Height                         : 688 pixels

Display aspect ratio           : 1.85:1

Frame rate mode                : Constant

Frame rate                     : 23.976 (24000/1001) FPS

Color space                    : YUV

Chroma subsampling             : 4:2:0

Bit depth                      : 8 bits

Scan type                      : Progressive

Bits/(Pixel*Frame)             : 0.049

Stream size                    : 937 MiB (73%)

Title                          : GOPISAHI

Writing library                : x264 core 129 r2245 bc13772


Audio #1

Format                         : AAC LC

Duration                       : 1 h 59 min

Bit rate                       : 96.0 kb/s

Channel(s)                     : 2 channels

Channel layout                 : L R

Sampling rate                  : 48.0 kHz

Frame rate                     : 46.875 FPS (1024 SPF)

Compression mode               : Lossy

Delay relative to video        : -125 ms

Stream size                    : 82.4 MiB (6%)

Title                          : GOPISAHI

Language                       : Hindi


Audio #2

Format                         : AAC LC

Duration                       : 1 h 59 min

Bit rate                       : 96.0 kb/s

Channel(s)                     : 2 channels

Channel layout                 : L R

Sampling rate                  : 48.0 kHz

Frame rate                     : 46.875 FPS (1024 SPF)

Compression mode               : Lossy

Delay relative to video        : -125 ms

Stream size                    : 82.4 MiB (6%)

Title                          : GOPISAHI

Language                       : Tamil


Audio #3

Format                         : AAC LC

Duration                       : 1 h 59 min

Bit rate                       : 96.0 kb/s

Channel(s)                     : 2 channels

Channel layout                 : L R

Sampling rate                  : 48.0 kHz

Frame rate                     : 46.875 FPS (1024 SPF)

Compression mode               : Lossy

Delay relative to video        : -125 ms

Stream size                    : 82.4 MiB (6%)

Title                          : GOPISAHI

Language                       : Telugu


Audio #4

Format                         : AAC LC

Duration                       : 2 h 6 min

Bit rate                       : 96.0 kb/s

Channel(s)                     : 2 channels

Channel layout                 : L R

Sampling rate                  : 48.0 kHz

Frame rate                     : 46.875 FPS (1024 SPF)

Compression mode               : Lossy

Delay relative to video        : -125 ms

Stream size                    : 86.9 MiB (7%)

Title                          : GOPISAHI

Language                       : English


Text

Language                       : English