Killing Gunther 2017 x264 720p Esub BluRay Dual Audio English Hindi Sadeemrdp GOPI SAHI

Killing Gunther (2017)

 
A group of eccentric assassins are fed up with Gunther, the world's greatest hitman, and decide to kill him, but their plan turns into a series of bungled encounters as Gunther seems to always be one step ahead.

Director:

Taran Killam

Writer:

Taran Killam

4.7/10


Directed byTaran Killam
Produced by
  • Taran Killam
  • Kim Leadford
  • Ash Sarohia
  • Steve Squillante
Written byTaran Killam
Starring
Music byDino Meneghin
CinematographyBlake McClure
Edited byAdam Epstein
Production
companies
Distributed bySaban Films
Release date
  • October 20, 2017 (United States)
Running time
93 minutes[1]
CountryUnited States
LanguageEnglish



Format                         : Matroska
Format version                 : Version 4
File size                      : 731 MiB
Duration                       : 1 h 33 min
Overall bit rate               : 1 094 kb/s
Movie name                     : Killing Gunther 2017 GOPI SAHI
Encoded date                   : UTC 2020-05-12 14:16:10
Writing application            : mkvmerge v46.0.0 ('No Deeper Escape') 32-bit
Writing library                : libebml v1.3.10 + libmatroska v1.5.2

Video
ID                             : 1
Format                         : AVC
Format/Info                    : Advanced Video Codec
Format profile                 : [email protected]
Format settings                : CABAC / 5 Ref Frames
Format settings, CABAC         : Yes
Format settings, Reference fra : 5 frames
Codec ID                       : V_MPEG4/ISO/AVC
Duration                       : 1 h 33 min
Bit rate                       : 899 kb/s
Width                          : 1 280 pixels
Height                         : 690 pixels
Display aspect ratio           : 1.85:1
Frame rate mode                : Constant
Frame rate                     : 23.976 (24000/1001) FPS
Color space                    : YUV
Chroma subsampling             : 4:2:0
Bit depth                      : 8 bits
Scan type                      : Progressive
Bits/(Pixel*Frame)             : 0.042
Stream size                    : 601 MiB (82%)
Title                          : GOPI SAHI
Writing library                : x264 core 157 r2935 545de2f

Audio #1
ID                             : 2
Format                         : AAC LC
Format/Info                    : Advanced Audio Codec Low Complexity
Codec ID                       : A_AAC-2
Duration                       : 1 h 33 min
Bit rate                       : 96.0 kb/s
Channel(s)                     : 2 channels
Channel layout                 : L R
Sampling rate                  : 48.0 kHz
Frame rate                     : 46.875 FPS (1024 SPF)
Compression mode               : Lossy
Stream size                    : 64.3 MiB (9%)
Title                          : GOPI SAHI
Language                       : Hindi
Default                        : No
Forced                         : No

Audio #2
ID                             : 3
Format                         : AAC LC
Format/Info                    : Advanced Audio Codec Low Complexity
Codec ID                       : A_AAC-2
Duration                       : 1 h 33 min
Bit rate                       : 96.0 kb/s
Channel(s)                     : 2 channels
Channel layout                 : L R
Sampling rate                  : 48.0 kHz
Frame rate                     : 46.875 FPS (1024 SPF)
Compression mode               : Lossy
Delay relative to video        : 2 ms
Stream size                    : 64.2 MiB (9%)
Title                          : GOPI SAHI
Language                       : English
Default                        : Yes
Forced                         : No

Text
ID                             : 4
Format                         : ASS
Codec ID                       : S_TEXT/ASS
Codec ID/Info                  : Advanced Sub Station Alpha
Duration                       : 1 h 29 min
Bit rate                       : 126 b/s
Count of elements              : 1545
Compression mode               : Lossless
Stream size                    : 83.2 KiB (0%)
Title                          : GOPI SAHI
Language                       : English
Default                        : Yes
Forced                         : No