Ittefaq 2017 x264 720p Esub BluRay Hindi Sadeemrdp GOPI SAHI


Coincidence (2017)

Ittefaq (original title)
Not Rated | |Mystery, Thriller |3 November 2017 (USA)

A detective seeks out the truth between two different stories of a crime scene.

Director:

Abhay Chopra
7.2/10

Directed byAbhay Chopra
Produced byShah Rukh Khan
Gauri Khan
Renu Ravi Chopra
Hiroo Yash Johar
Karan Johar
Written byAbhay Chopra
Shreyas Jain
Nikhil Mehrotra
Screenplay byAbhay Chopra
Based onIttefaq
by Yash Chopra
StarringSidharth Malhotra
Akshaye Khanna
Sonakshi Sinha
Music byTanishk Bagchi
BT
CinematographyMichal Luka
Edited byNitin Baid
Production
company
Distributed byAA Films
Release date
  • 3 November 2017
Running time
107 minutes
CountryIndia
LanguageHindi
Budget29 crore[1]
Box officeest. 56.26 crore[1][2]


Format                         : Matroska
Format version                 : Version 4
File size                      : 753 MiB
Duration                       : 1 h 45 min
Overall bit rate               : 997 kb/s
Movie name                     : Ittefaq 2017 GOPI SAHI
Encoded date                   : UTC 2020-05-20 12:08:44
Writing application            : mkvmerge v46.0.0 ('No Deeper Escape') 32-bit
Writing library                : libebml v1.3.10 + libmatroska v1.5.2

Video
ID                             : 1
Format                         : AVC
Format/Info                    : Advanced Video Codec
Format profile                 : [email protected]
Format settings                : CABAC / 5 Ref Frames
Format settings, CABAC         : Yes
Format settings, Reference fra : 5 frames
Codec ID                       : V_MPEG4/ISO/AVC
Duration                       : 1 h 45 min
Bit rate                       : 899 kb/s
Width                          : 1 280 pixels
Height                         : 534 pixels
Display aspect ratio           : 2.40:1
Frame rate mode                : Constant
Frame rate                     : 24.000 FPS
Color space                    : YUV
Chroma subsampling             : 4:2:0
Bit depth                      : 8 bits
Scan type                      : Progressive
Bits/(Pixel*Frame)             : 0.055
Stream size                    : 678 MiB (90%)
Title                          : GOPI SAHI
Writing library                : x264 core 157 r2935 545de2f


Audio
ID                             : 2
Format                         : AAC LC
Format/Info                    : Advanced Audio Codec Low Complexity
Codec ID                       : A_AAC-2
Duration                       : 1 h 45 min
Bit rate                       : 96.0 kb/s
Channel(s)                     : 2 channels
Channel layout                 : L R
Sampling rate                  : 48.0 kHz
Frame rate                     : 46.875 FPS (1024 SPF)
Compression mode               : Lossy
Delay relative to video        : -21 ms
Stream size                    : 72.5 MiB (10%)
Title                          : GOPI SAHI
Language                       : Hindi
Default                        : Yes
Forced                         : No

Text
ID                             : 3
Format                         : UTF-8
Codec ID                       : S_TEXT/UTF8
Codec ID/Info                  : UTF-8 Plain Text
Duration                       : 1 h 39 min
Bit rate                       : 59 b/s
Count of elements              : 1369
Stream size                    : 42.9 KiB (0%)
Title                          : GOPI SAHI
Language                       : English
Default                        : Yes
Forced                         : No

Menu
00:00:00.000                   : :00:00:00.000
00:01:06.667                   : :00:01:06.625
00:08:28.792                   : :00:08:28.750
00:15:33.542                   : :00:15:33.500
00:28:50.000                   : :00:28:50.000
00:36:17.208                   : :00:36:17.208
00:49:29.833                   : :00:49:29.833
00:54:23.583                   : :00:54:23.500
01:03:09.000                   : :01:03:09.000
01:08:05.917                   : :01:08:05.917
01:21:33.125                   : :01:21:33.000
01:29:51.917                   : :01:29:51.833