It Takes Two 1995 x264 720p Esub BluRay Dual Audio English Hindi Sadeemrdp GOPI SAHI

It Takes Two (1995)


Alyssa and Amanda are two little girls who are identical, but complete strangers, that accidentally meet one day.

Director:

Andy Tennant
 
 
5.9/10
19,792
 
Directed byAndy Tennant
Produced byJames Orr
Jim Cruickshank
Written byDeborah Dean Davis
Starring
Music byRay Foote
Sherman Foote
CinematographyKenneth D. Zunder
Edited byRoger Bondelli
Production
companies
Distributed byWarner Bros. Pictures
Release date
  • November 17, 1995
Running time
101 minutes
CountryUnited States
LanguageEnglish
Box office$19.5 million[1]
 
 


Format                         : Matroska
Format version                 : Version 4
File size                      : 815 MiB
Duration                       : 1 h 41 min
Overall bit rate               : 1 126 kb/s
Movie name                     : It Takes Two 1995 GOPI SAHI

Video
ID                             : 1
Format                         : AVC
Format/Info                    : Advanced Video Codec
Format profile                 : [email protected]
Format settings                : CABAC / 5 Ref Frames
Format settings, CABAC         : Yes
Format settings, Reference fra : 5 frames
Codec ID                       : V_MPEG4/ISO/AVC
Duration                       : 1 h 41 min
Bit rate                       : 899 kb/s
Width                          : 1 280 pixels
Height                         : 720 pixels
Display aspect ratio           : 16:9
Frame rate mode                : Constant
Frame rate                     : 23.976 (24000/1001) FPS
Color space                    : YUV
Chroma subsampling             : 4:2:0
Bit depth                      : 8 bits
Scan type                      : Progressive
Bits/(Pixel*Frame)             : 0.041
Stream size                    : 649 MiB (80%)
Title                          : GOPI SAHI
Writing library                : x264 core 157 r2935 545de2f

Audio #1
ID                             : 2
Format                         : AAC LC
Format/Info                    : Advanced Audio Codec Low Complexity
Codec ID                       : A_AAC-2
Duration                       : 1 h 41 min
Bit rate                       : 96.0 kb/s
Channel(s)                     : 2 channels
Channel layout                 : L R
Sampling rate                  : 48.0 kHz
Frame rate                     : 46.875 FPS (1024 SPF)
Compression mode               : Lossy
Delay relative to video        : -21 ms
Stream size                    : 69.5 MiB (9%)
Title                          : GOPI SAHI
Language                       : Hindi
Default                        : Yes
Forced                         : No

Audio #2
ID                             : 3
Format                         : AAC LC
Format/Info                    : Advanced Audio Codec Low Complexity
Codec ID                       : A_AAC-2
Duration                       : 1 h 41 min
Bit rate                       : 96.0 kb/s
Channel(s)                     : 2 channels
Channel layout                 : L R
Sampling rate                  : 48.0 kHz
Frame rate                     : 46.875 FPS (1024 SPF)
Compression mode               : Lossy
Delay relative to video        : -21 ms
Stream size                    : 69.5 MiB (9%)
Title                          : GOPI SAHI
Language                       : English
Default                        : No
Forced                         : No

Text #1
ID                             : 4
Format                         : PGS
Muxing mode                    : zlib
Codec ID                       : S_HDMV/PGS
Codec ID/Info                  : Picture based subtitle format used on BDs/HD-DVDs
Duration                       : 1 h 40 min
Bit rate                       : 27.3 kb/s
Count of elements              : 2844
Stream size                    : 19.6 MiB (2%)
Title                          : GOPI SAHI
Language                       : Hindi
Default                        : Yes
Forced                         : No

Text #2
ID                             : 5
Format                         : PGS
Muxing mode                    : zlib
Codec ID                       : S_HDMV/PGS
Codec ID/Info                  : Picture based subtitle format used on BDs/HD-DVDs
Duration                       : 1 h 40 min
Bit rate                       : 35.7 kb/s
Count of elements              : 3124
Stream size                    : 25.6 MiB (3%)
Title                          : GOPI SAHI
Language                       : English
Default                        : No
Forced                         : No