Ishq Kills (2020) x264 ULLU Hindi ( S01 Complete E01 - 04 ) 720p

Ishq Kills (2020):

Storyline:
A phenomenal love story on dissension between Love and Traditions ....Sentiments and Principals..
What will she choose when her own family are on a quest to ruin it all ? Her fondness or their Enmity ?? ISHQ KILLS - GAME OF LOVE !

Cast
Tarun Khanna ( Vikram ), Usha Bachani ( Nalini ), Akhilesh Verma ( Ranbeer ),
Aashma Syed ( Simran ), Saharsh Kumar Shukla (Maakhan ).

Director
Shadab Khan.

Video:
Format: Mkv
Resolution: 1280*720
Language: Hindi [AAC]
No. of Episodes: 04 ( Season Complete )



Format                         : Matroska
Format version                 : Version 4
File size                      : 181 MiB
Duration                       : 23 min 22 s
Overall bit rate               : 1 084 kb/s
Encoded date                   : UTC 2020-05-22 03:30:37

Video
ID                             : 1
Format                         : AVC
Format/Info                    : Advanced Video Codec
Format profile                 : [email protected]
Format settings                : CABAC / 4 Ref Frames
Format settings, CABAC         : Yes
Format settings, Reference fra : 4 frames
Codec ID                       : V_MPEG4/ISO/AVC
Duration                       : 23 min 22 s
Bit rate                       : 1 040 kb/s
Width                          : 1 280 pixels
Height                         : 720 pixels
Display aspect ratio           : 16:9
Frame rate mode                : Constant
Frame rate                     : 25.000 FPS
Color space                    : YUV
Chroma subsampling             : 4:2:0
Bit depth                      : 8 bits
Scan type                      : Progressive
Bits/(Pixel*Frame)             : 0.045
Stream size                    : 169 MiB (94%)
Writing library                : x264 core 155 r2901 7d0ff22

Audio
ID                             : 2
Format                         : AAC LC
Format/Info                    : Advanced Audio Codec Low Complexity
Codec ID                       : A_AAC-2
Duration                       : 23 min 22 s
Bit rate                       : 68.1 kb/s
Channel(s)                     : 2 channels
Channel layout                 : L R
Sampling rate                  : 44.1 kHz
Frame rate                     : 43.066 FPS (1024 SPF)
Compression mode               : Lossy
Stream size                    : 11.4 MiB (6%)
Language                       : Hindi
Default                        : Yes
Forced                         : No




ZIPER LINKS 700 MB SIZE