How to Train Your Dragon 2010 x264 720p Esub BluRay Dual Audio English Hindi Telugu Tamil Sadeemrdp GOPI SAHI

How to Train Your Dragon (2010)

 
A hapless young Viking who aspires to hunt dragons becomes the unlikely friend of a young dragon himself, and learns there may be more to the creatures than he assumed.

Writers:

William Davies (screenplay by) (as Will Davies), Dean DeBlois (screenplay by) |3 more credits »

8.1/10




Directed by
Produced byBonnie Arnold
Screenplay by
Based onHow to Train Your Dragon
by Cressida Cowell
Starring
Music byJohn Powell
Edited by
Production
company
Distributed byParamount Pictures
Release date
Running time
98 minutes
CountryUnited States
LanguageEnglish
Budget$165 million[1]
Box office$494.9 million[1]



Format                         : Matroska
Format version                 : Version 4
File size                      : 902 MiB
Duration                       : 1 h 37 min
Overall bit rate               : 1 289 kb/s
Movie name                     : How to Train Your Dragon 2010 GOPI SAHI

Video
ID                             : 1
Format                         : AVC
Format/Info                    : Advanced Video Codec
Format profile                 : [email protected]
Format settings                : CABAC / 5 Ref Frames
Format settings, CABAC         : Yes
Format settings, Reference fra : 5 frames
Codec ID                       : V_MPEG4/ISO/AVC
Duration                       : 1 h 37 min
Bit rate                       : 899 kb/s
Width                          : 1 280 pixels
Height                         : 544 pixels
Display aspect ratio           : 2.35:1
Frame rate mode                : Constant
Frame rate                     : 23.976 (24000/1001) FPS
Color space                    : YUV
Chroma subsampling             : 4:2:0
Bit depth                      : 8 bits
Scan type                      : Progressive
Bits/(Pixel*Frame)             : 0.054
Stream size                    : 629 MiB (70%)
Title                          : GOPI SAHI
Writing library                : x264 core 157 r2935 545de2f

Audio #1
ID                             : 2
Format                         : AAC LC
Format/Info                    : Advanced Audio Codec Low Complexity
Codec ID                       : A_AAC-2
Duration                       : 1 h 37 min
Bit rate                       : 96.0 kb/s
Channel(s)                     : 2 channels
Channel layout                 : L R
Sampling rate                  : 48.0 kHz
Frame rate                     : 46.875 FPS (1024 SPF)
Compression mode               : Lossy
Delay relative to video        : -21 ms
Stream size                    : 67.4 MiB (7%)
Title                          : GOPI SAHI
Language                       : Hindi
Default                        : Yes
Forced                         : No

Audio #2
ID                             : 3
Format                         : AAC LC
Format/Info                    : Advanced Audio Codec Low Complexity
Codec ID                       : A_AAC-2
Duration                       : 1 h 37 min
Bit rate                       : 96.0 kb/s
Channel(s)                     : 2 channels
Channel layout                 : L R
Sampling rate                  : 48.0 kHz
Frame rate                     : 46.875 FPS (1024 SPF)
Compression mode               : Lossy
Delay relative to video        : -21 ms
Stream size                    : 67.4 MiB (7%)
Title                          : GOPI SAHI
Language                       : English
Default                        : No
Forced                         : No

Audio #3
ID                             : 4
Format                         : AAC LC
Format/Info                    : Advanced Audio Codec Low Complexity
Codec ID                       : A_AAC-2
Duration                       : 1 h 37 min
Bit rate                       : 96.0 kb/s
Channel(s)                     : 2 channels
Channel layout                 : L R
Sampling rate                  : 48.0 kHz
Frame rate                     : 46.875 FPS (1024 SPF)
Compression mode               : Lossy
Delay relative to video        : -21 ms
Stream size                    : 67.4 MiB (7%)
Title                          : GOPI SAHI
Language                       : Tamil
Default                        : No
Forced                         : No

Audio #4
ID                             : 5
Format                         : AAC LC
Format/Info                    : Advanced Audio Codec Low Complexity
Codec ID                       : A_AAC-2
Duration                       : 1 h 37 min
Bit rate                       : 96.0 kb/s
Channel(s)                     : 2 channels
Channel layout                 : L R
Sampling rate                  : 48.0 kHz
Frame rate                     : 46.875 FPS (1024 SPF)
Compression mode               : Lossy
Delay relative to video        : -21 ms
Stream size                    : 67.4 MiB (7%)
Title                          : GOPI SAHI
Language                       : Telugu
Default                        : No
Forced                         : No

Text #1
ID                             : 6
Format                         : UTF-8
Codec ID                       : S_TEXT/UTF8
Codec ID/Info                  : UTF-8 Plain Text
Duration                       : 1 h 28 min
Bit rate                       : 44 b/s
Count of elements              : 913
Stream size                    : 28.9 KiB (0%)
Title                          : GOPI SAHI
Language                       : English
Default                        : No
Forced                         : No

Text #2
ID                             : 7
Format                         : UTF-8
Codec ID                       : S_TEXT/UTF8
Codec ID/Info                  : UTF-8 Plain Text
Duration                       : 3 s 379 ms
Bit rate                       : 151 b/s
Count of elements              : 1
Stream size                    : 64.0 Bytes (0%)
Title                          : GOPI SAHI
Language                       : Hindi
Default                        : No
Forced                         : Yes

Text #3
ID                             : 8
Format                         : UTF-8
Codec ID                       : S_TEXT/UTF8
Codec ID/Info                  : UTF-8 Plain Text
Duration                       : 1 h 28 min
Bit rate                       : 109 b/s
Count of elements              : 875
Stream size                    : 70.8 KiB (0%)
Title                          : GOPI SAHI
Language                       : Bengali
Default                        : No
Forced                         : No

Menu
00:00:00.000                   : :Studio Logo
00:00:33.075                   : :Dragons Attack the Village
00:05:50.141                   : :Hiccup Screws Up
00:08:40.020                   : :Hiccup & Gobber Discuss Stoick
00:09:26.107                   : :Stoick & Gobber Discuss Hiccup
00:11:32.108                   : :Hiccup Finds the Night Fury
00:15:11.077                   : :Stoick & Hiccup Talk about Killing Dragons
00:16:53.054                   : :The Youth Starts Dragon Training
00:20:03.077                   : :Hiccup Finds the Hurt Night Fury
00:21:57.066                   : :Hiccup Studies Dragons
00:24:45.025                   : :Stoick & the Others Sail Towards Their Destination
00:25:33.032                   : :The Youth Continue Training
00:27:41.201                   : :Hiccup Feeds the Night Fury
00:31:00.025                   : :Hiccup and the Night Fury Hang Out
00:33:14.075                   : :The Youth & Gobber Talk about Dragons
00:34:30.026                   : :Hiccup Makes a Tail Fin
00:35:05.145                   : :Hiccup Puts the Tail Fin on the Night Fury
00:37:11.062                   : :The Youth Take on a Zippleback
00:39:07.011                   : :Hiccup Flies the Night Fury & Learns More about Dragons
00:40:07.196                   : :Hiccup Learns to Tickle Dragons
00:40:38.186                   : :Hiccup Learns to Make Dragons Chase Light
00:41:21.104                   : :Hiccup Practices Flying and Hides from Astrid
00:42:28.004                   : :Stoick Returns
00:43:28.106                   : :Hiccup Masters Flying & Befriends Dragons
00:47:08.034                   : :Stoick and Hiccup Talk about Training
00:49:47.026                   : :The Trainees Compete
00:51:01.183                   : :Astrid Follows Hiccup
00:54:11.039                   : :Astrid Changes Her Mind about Toothless
00:56:06.071                   : :Hiccup & Astrid Find the Dragon Nest
00:58:43.020                   : :Hiccup & Astrid Discuss the Dragon Nest
00:59:56.051                   : :Hiccup Partakes in the Ceremony
01:02:46.137                   : :The Ceremony Goes Awry
01:03:38.023                   : :Vikings Capture Toothless
01:04:47.092                   : :Stoick & Hiccup Discuss Dragon Training
01:06:28.109                   : :The Vikings Haul Toothless Off
01:09:23.117                   : :Stoick & the Vikings Sail Towards the Nest
01:10:30.143                   : :The Youth Ask Hiccup What the Plan Is
01:10:53.166                   : :Stoick & the Vikings Find the Nest
01:11:49.055                   : :Hiccup Starts Retraining the Youth
01:12:38.104                   : :Stoick and the Vikings Break into the Nest
01:14:09.028                   : :Master Dragon Comes out of the Nest
01:15:52.089                   : :The Youth Come Flying in on Dragons
01:18:04.013                   : :Stoick Rescues Toothless
01:20:31.035                   : :Hiccup & Toothless Fight the Dragon
01:23:26.084                   : :Stoick Finds Hiccup
01:25:24.077                   : :Hiccup Wakes Up to a Different Village
01:28:54.246                   : :End Credits