Hannibal 2001 x264 720p Esub BluRay Dual Audio English Hindi Sadeemrdp GOPI SAHI

Hannibal (2001)

Living in exile, Dr. Hannibal Lecter tries to reconnect with now disgraced F.B.I. Agent Clarice Starling, and finds himself a target for revenge from a powerful victim.

Director:

Ridley Scott

Writers:

Thomas Harris (novel), David Mamet (screenplay) |1 more credit »
6.8/10

Directed byRidley Scott
Produced by
Screenplay by
Based onHannibal
by Thomas Harris
Starring
Music byHans Zimmer
CinematographyJohn Mathieson
Edited byPietro Scalia
Production
company
Distributed by
Release date
  • 9 February 2001
Running time
132 minutes[1]
CountryUnited States[2][3][4]
LanguageEnglish
Budget$87 million[5]
Box office$351.6 million[5]



Hannibal 2001 x264 720p Esub BluRay Dual Audio English Hindi Sadeemrdp GOPI SAHI
Format                         : Matroska
Format version                 : Version 4
File size                      : 1.01 GiB
Duration                       : 2 h 11 min
Overall bit rate               : 1 098 kb/s
Movie name                     : Hannibal 2001 GOPI SAHI
Encoded date                   : UTC 2020-05-11 15:57:21
Writing application            : mkvmerge v46.0.0 ('No Deeper Escape') 32-bit
Writing library                : libebml v1.3.10 + libmatroska v1.5.2

Video
ID                             : 1
Format                         : AVC
Format/Info                    : Advanced Video Codec
Format profile                 : [email protected]
Format settings                : CABAC / 5 Ref Frames
Format settings, CABAC         : Yes
Format settings, Reference fra : 5 frames
Codec ID                       : V_MPEG4/ISO/AVC
Duration                       : 2 h 11 min
Bit rate                       : 899 kb/s
Width                          : 1 280 pixels
Height                         : 694 pixels
Display aspect ratio           : 1.85:1
Frame rate mode                : Constant
Frame rate                     : 23.976 (24000/1001) FPS
Color space                    : YUV
Chroma subsampling             : 4:2:0
Bit depth                      : 8 bits
Scan type                      : Progressive
Bits/(Pixel*Frame)             : 0.042
Stream size                    : 846 MiB (82%)
Title                          : GOPI SAHI
Writing library                : x264 core 157 r2935 545de2f

Audio #1
ID                             : 2
Format                         : AAC LC
Format/Info                    : Advanced Audio Codec Low Complexity
Codec ID                       : A_AAC-2
Duration                       : 2 h 11 min
Bit rate                       : 96.0 kb/s
Channel(s)                     : 2 channels
Channel layout                 : L R
Sampling rate                  : 48.0 kHz
Frame rate                     : 46.875 FPS (1024 SPF)
Compression mode               : Lossy
Delay relative to video        : 999 ms
Stream size                    : 90.6 MiB (9%)
Title                          : GOPI SAHI
Language                       : Hindi
Default                        : Yes
Forced                         : No

Audio #2
ID                             : 3
Format                         : AAC LC
Format/Info                    : Advanced Audio Codec Low Complexity
Codec ID                       : A_AAC-2
Duration                       : 2 h 11 min
Bit rate                       : 96.0 kb/s
Channel(s)                     : 2 channels
Channel layout                 : L R
Sampling rate                  : 48.0 kHz
Frame rate                     : 46.875 FPS (1024 SPF)
Compression mode               : Lossy
Delay relative to video        : -1 ms
Stream size                    : 90.7 MiB (9%)
Title                          : GOPI SAHI
Language                       : English
Default                        : No
Forced                         : No

Text
ID                             : 4
Format                         : VobSub
Muxing mode                    : zlib
Codec ID                       : S_VOBSUB
Codec ID/Info                  : Picture based subtitle format used on DVDs
Duration                       : 2 h 10 min
Bit rate                       : 6 363 b/s
Count of elements              : 1387
Stream size                    : 5.95 MiB (1%)
Title                          : GOPI SAHI
Language                       : English
Default                        : Yes
Forced                         : Yes

Menu
00:00:00.000                   : :Chapter 1
00:15:52.493                   : :Chapter 2
00:28:57.569                   : :Chapter 3
00:39:49.846                   : :Chapter 4
00:54:40.778                   : :Chapter 5
01:10:14.544                   : :Chapter 6
01:21:40.896                   : :Chapter 7
01:42:24.972                   : :Chapter 8
01:51:21.633                   : :Chapter 9
02:01:39.209                   : :Chapter 10