Hand Of Death 1976 x264 720p Esub BluRay Dual Audio Hindi Chinese Sadeemrdp GOPI SAHI

The Hand of Death (1976)

Shao Lin men (original title)

A survivor of an attack on a rebel group opposing the Manchu invasion of China creates the Goose Fist fighting technique and tries for revenge on a traitor.

Director:

John Woo (as Wu Yu Sheng)

Writer:

John Woo

6.1/10
1,285
Directed byJohn Woo
Produced by
Written byJohn Woo
Starring
Music byJoseph Koo
CinematographyLiang Yung-chi
Edited by
  • Chang Yau-chung
  • Yuan Tung-chun
Release date
  • 15 July 1976
Running time
95 min.
CountryHong Kong
LanguageMandarin



Format                         : Matroska
Format version                 : Version 4
File size                      : 760 MiB
Duration                       : 1 h 37 min
Overall bit rate               : 1 095 kb/s
Movie name                     : Hand Of Death 1976 GOPI SAHI
Video
ID                             : 1
Format                         : AVC
Format/Info                    : Advanced Video Codec
Format profile                 : [email protected]
Format settings                : CABAC / 5 Ref Frames
Format settings, CABAC         : Yes
Format settings, Reference fra : 5 frames
Codec ID                       : V_MPEG4/ISO/AVC
Duration                       : 1 h 37 min
Bit rate                       : 899 kb/s
Width                          : 1 280 pixels
Height                         : 544 pixels
Display aspect ratio           : 2.35:1
Frame rate mode                : Constant
Frame rate                     : 23.976 (24000/1001) FPS
Color space                    : YUV
Chroma subsampling             : 4:2:0
Bit depth                      : 8 bits
Scan type                      : Progressive
Bits/(Pixel*Frame)             : 0.054
Stream size                    : 624 MiB (82%)
Title                          : GOPI SAHI
Writing library                : x264 core 157 r2935 545de2f

Audio #1
ID                             : 2
Format                         : AAC LC
Format/Info                    : Advanced Audio Codec Low Complexity
Codec ID                       : A_AAC-2
Duration                       : 1 h 37 min
Bit rate                       : 96.0 kb/s
Channel(s)                     : 2 channels
Channel layout                 : L R
Sampling rate                  : 48.0 kHz
Frame rate                     : 46.875 FPS (1024 SPF)
Compression mode               : Lossy
Delay relative to video        : -21 ms
Stream size                    : 66.9 MiB (9%)
Title                          : GOPI SAHI
Language                       : Hindi
Default                        : Yes
Forced                         : No

Audio #2
ID                             : 3
Format                         : AAC LC
Format/Info                    : Advanced Audio Codec Low Complexity
Codec ID                       : A_AAC-2
Duration                       : 1 h 37 min
Bit rate                       : 96.0 kb/s
Channel(s)                     : 2 channels
Channel layout                 : L R
Sampling rate                  : 48.0 kHz
Frame rate                     : 46.875 FPS (1024 SPF)
Compression mode               : Lossy
Stream size                    : 66.9 MiB (9%)
Title                          : GOPI SAHI
Language                       : Chinese
Default                        : No
Forced                         : No

Text
ID                             : 4
Format                         : UTF-8
Codec ID                       : S_TEXT/UTF8
Codec ID/Info                  : UTF-8 Plain Text
Duration                       : 1 h 29 min
Bit rate                       : 34 b/s
Count of elements              : 524
Stream size                    : 22.7 KiB (0%)
Title                          : GOPI SAHI
Language                       : English
Default                        : Yes
Forced                         : No










UPLOADFILES