Chhorriyan Chhoron Se Kam Nahi Hoti 2019 x264 720p Esub HD Hindi Sadeemrdp GOPI SAHI

Chhorriyan Chhoron Se Kam Nahi Hoti (2019)



Chhoriyan Chhoron Se Kam Nahi Hoti
Directed byRajesh Amarlal Babbar
Produced by
  • Zee Studios
  • Nishant Kaushik
  • Shashi Kaushik
Screenplay byAvantika Saksena
Story byAmit Raj Verma
StarringSatish kaushik
Rashmi Somvanshi
Annirudh Dave
Prakash Ghai
Music byRahul Jain
Kashi - Richard
Shantanu Dutta
Aslam Keyi
Music Nasha
Edited bySanjay Verma
Tarun Sunil Babbar
Production
company
Zee Studios, The Satish Kaushik Entertainment
Distributed byZee Studios
Release date
  • 17 May 2019[1]
CountryIndia
LanguageHindi


Format                         : Matroska
Format version                 : Version 4
File size                      : 765 MiB
Duration                       : 1 h 47 min
Overall bit rate               : 997 kb/s
Movie name                     : Chhorriyan Chhoron Se Kam Nahi Hoti 2019 GOPI SAHI


Video
ID                             : 1
Format                         : AVC
Format/Info                    : Advanced Video Codec
Format profile                 : [email protected]
Format settings                : CABAC / 5 Ref Frames
Format settings, CABAC         : Yes
Format settings, Reference fra : 5 frames
Codec ID                       : V_MPEG4/ISO/AVC
Duration                       : 1 h 47 min
Bit rate                       : 899 kb/s
Width                          : 1 280 pixels
Height                         : 538 pixels
Display aspect ratio           : 2.40:1
Frame rate mode                : Constant
Frame rate                     : 25.000 FPS
Color space                    : YUV
Chroma subsampling             : 4:2:0
Bit depth                      : 8 bits
Scan type                      : Progressive
Bits/(Pixel*Frame)             : 0.052
Stream size                    : 689 MiB (90%)
Title                          : GOPI SAHI
Writing library                : x264 core 157 r2935 545de2f

Audio
ID                             : 2
Format                         : AAC LC
Format/Info                    : Advanced Audio Codec Low Complexity
Codec ID                       : A_AAC-2
Duration                       : 1 h 47 min
Bit rate                       : 96.0 kb/s
Channel(s)                     : 2 channels
Channel layout                 : L R
Sampling rate                  : 48.0 kHz
Frame rate                     : 46.875 FPS (1024 SPF)
Compression mode               : Lossy
Delay relative to video        : -21 ms
Stream size                    : 73.7 MiB (10%)
Title                          : GOPI SAHI
Language                       : Hindi
Default                        : Yes
Forced                         : No

Text
ID                             : 3
Format                         : UTF-8
Codec ID                       : S_TEXT/UTF8
Codec ID/Info                  : UTF-8 Plain Text
Duration                       : 1 h 43 min
Bit rate                       : 55 b/s
Count of elements              : 1439
Stream size                    : 42.4 KiB (0%)
Title                          : GOPI SAHI
Language                       : English
Default                        : Yes
Forced                         : No