Casino Royale 2006 x264 720p Esub BluRay Dual Audio English Hindi Sadeemrdp GOPI SAHI

Casino Royale (2006)

After earning 00 status and a licence to kill, Secret Agent James Bond sets out on his first mission as 007. Bond must defeat a private banker funding terrorists in a high-stakes game of poker at Casino Royale, Montenegro.

Director:

Martin Campbell

Writers:

Neal Purvis (screenplay), Robert Wade (screenplay) |2 more credits »
8.0/10


Directed byMartin Campbell
Produced by
Screenplay by
Based onCasino Royale
by Ian Fleming
Starring
Music byDavid Arnold
CinematographyPhil Méheux
Edited byStuart Baird
Production
company
Distributed bySony Pictures Releasing[1]
Release date
  • 14 November 2006 (London)
  • 16 November 2006 (UK)
  • 17 November 2006 (US)
Running time
144 minutes
Country
  • Czech Republic
  • Germany
  • United Kingdom
  • United States
LanguageEnglish
Budget$150 million
Box office$616.5 million[2]




Format                         : Matroska
Format version                 : Version 4
File size                      : 1.12 GiB
Duration                       : 2 h 24 min
Overall bit rate               : 1 105 kb/s
Movie name                     : Casino Royale 2006 GOPI SAHI
Encoded date                   : UTC 2020-05-11 16:01:08
Writing application            : mkvmerge v46.0.0 ('No Deeper Escape') 32-bit
Writing library                : libebml v1.3.10 + libmatroska v1.5.2

Video
ID                             : 1
Format                         : AVC
Format/Info                    : Advanced Video Codec
Format profile                 : [email protected]
Format settings                : CABAC / 5 Ref Frames
Format settings, CABAC         : Yes
Format settings, Reference fra : 5 frames
Codec ID                       : V_MPEG4/ISO/AVC
Duration                       : 2 h 24 min
Bit rate                       : 899 kb/s
Width                          : 1 280 pixels
Height                         : 534 pixels
Display aspect ratio           : 2.40:1
Frame rate mode                : Constant
Frame rate                     : 23.976 (24000/1001) FPS
Color space                    : YUV
Chroma subsampling             : 4:2:0
Bit depth                      : 8 bits
Scan type                      : Progressive
Bits/(Pixel*Frame)             : 0.055
Stream size                    : 929 MiB (81%)
Title                          : GOPI SAHI
Writing library                : x264 core 157 r2935 545de2f

Audio #1
ID                             : 2
Format                         : AAC LC
Format/Info                    : Advanced Audio Codec Low Complexity
Codec ID                       : A_AAC-2
Duration                       : 2 h 24 min
Bit rate                       : 96.0 kb/s
Channel(s)                     : 2 channels
Channel layout                 : L R
Sampling rate                  : 48.0 kHz
Frame rate                     : 46.875 FPS (1024 SPF)
Compression mode               : Lossy
Delay relative to video        : 1 ms
Stream size                    : 99.7 MiB (9%)
Title                          : GOPI SAHI
Language                       : Hindi
Default                        : Yes
Forced                         : No

Audio #2
ID                             : 3
Format                         : AAC LC
Format/Info                    : Advanced Audio Codec Low Complexity
Codec ID                       : A_AAC-2
Duration                       : 2 h 24 min
Bit rate                       : 96.0 kb/s
Channel(s)                     : 2 channels
Channel layout                 : L R
Sampling rate                  : 48.0 kHz
Frame rate                     : 46.875 FPS (1024 SPF)
Compression mode               : Lossy
Delay relative to video        : 1 s 385 ms
Stream size                    : 99.7 MiB (9%)
Title                          : GOPI SAHI
Language                       : English
Default                        : No
Forced                         : No

Text #1
ID                             : 4
Format                         : PGS
Muxing mode                    : zlib
Codec ID                       : S_HDMV/PGS
Codec ID/Info                  : Picture based subtitle format used on BDs/HD-DVDs
Duration                       : 2 h 23 min
Bit rate                       : 20.1 kb/s
Count of elements              : 2084
Stream size                    : 20.6 MiB (2%)
Title                          : GOPI SAHI
Language                       : English
Default                        : Yes
Forced                         : Yes

Text #2
ID                             : 5
Format                         : PGS
Muxing mode                    : zlib
Codec ID                       : S_HDMV/PGS
Codec ID/Info                  : Picture based subtitle format used on BDs/HD-DVDs
Duration                       : 2 h 23 min
Bit rate                       : 12.8 kb/s
Count of elements              : 2188
Stream size                    : 13.2 MiB (1%)
Title                          : GOPI SAHI
Language                       : Hindi
Default                        : No
Forced                         : No