Badhaai Ho 2018 x264 720p Esub BluRay Hindi Sadeemrdp GOPI SAHI

Badhaai Ho (2018)

Badhaai ho (original title)
Not Rated | |Comedy, Drama |19 October 2018 (USA)

A man is embarrassed when he finds out his mother is pregnant.

Director:

Amit Ravindernath Sharma (as Amit Sharma)

Writers:

Akshat Ghildial (screenplay and dialogue), Akshat Ghildial (story) |3 more credits »

8.0/10
24,741

Directed byAmit Ravindrenath Sharma
Produced byVineet Jain
Aleya Sen
Hemant Bhandari
Amit Ravindernath Sharma
Sushil Choudhary
Priti Sahani
Written byShanatanu Srivastava
Akshat Ghildial
Jyoti Kapoor
Screenplay byAkshat Ghildial
StarringAyushmann Khurrana
Neena Gupta
Gajraj Rao
Surekha Sikri
Sanya Malhotra
Music bySongs:
Tanishk Bagchi
Rochak Kohli
JAM8
Sunny Bawra-Inder Bawra
Background Score:
Abhishek Arora
CinematographySanu Varghese
Edited byDev Rao Jadhav
Production
company
Junglee Pictures
Chrome Pictures
Distributed byAA Films
Release date
  • 18 October 2018
Running time
123 minutes
CountryIndia
LanguageHindi
Budget₹29 crore[1]
($4.14 million)
Box office₹221.44crore[2]
($39.0 million)

Badhaai Ho 2018 GOPI SAHI

Format                         : Matroska
Format version                 : Version 4
File size                      : 912 MiB
Duration                       : 2 h 5 min
Overall bit rate               : 1 015 kb/s
Movie name                     : Badhaai Ho 2018 GOPI SAHI
Encoded date                   : UTC 2020-05-13 21:45:17
Writing application            : mkvmerge v46.0.0 ('No Deeper Escape') 32-bit
Writing library                : libebml v1.3.10 + libmatroska v1.5.2

Video
ID                             : 1
Format                         : AVC
Format/Info                    : Advanced Video Codec
Format profile                 : [email protected]
Format settings                : CABAC / 5 Ref Frames
Format settings, CABAC         : Yes
Format settings, Reference fra : 5 frames
Codec ID                       : V_MPEG4/ISO/AVC
Duration                       : 2 h 5 min
Bit rate                       : 899 kb/s
Width                          : 1 280 pixels
Height                         : 534 pixels
Display aspect ratio           : 2.40:1
Frame rate mode                : Constant
Frame rate                     : 24.000 FPS
Color space                    : YUV
Chroma subsampling             : 4:2:0
Bit depth                      : 8 bits
Scan type                      : Progressive
Bits/(Pixel*Frame)             : 0.055
Stream size                    : 808 MiB (89%)
Title                          : GOPI SAHI
Writing library                : x264 core 157 r2935 545de2f

Audio
ID                             : 2
Format                         : AAC LC
Format/Info                    : Advanced Audio Codec Low Complexity
Codec ID                       : A_AAC-2
Duration                       : 2 h 5 min
Bit rate                       : 96.0 kb/s
Channel(s)                     : 2 channels
Channel layout                 : L R
Sampling rate                  : 48.0 kHz
Frame rate                     : 46.875 FPS (1024 SPF)
Compression mode               : Lossy
Delay relative to video        : -21 ms
Stream size                    : 86.8 MiB (10%)
Title                          : GOPI SAHI
Language                       : Hindi
Default                        : Yes
Forced                         : No

Text
ID                             : 3
Format                         : PGS
Muxing mode                    : zlib
Codec ID                       : S_HDMV/PGS
Codec ID/Info                  : Picture based subtitle format used on BDs/HD-DVDs
Duration                       : 1 h 54 min
Bit rate                       : 27.6 kb/s
Count of elements              : 2792
Stream size                    : 22.7 MiB (2%)
Title                          : GOPI SAHI
Language                       : English
Default                        : Yes
Forced                         : No

Menu
00:00:00.000                   : :Chapter 1
00:03:42.625                   : :Chapter 2
00:12:04.833                   : :Chapter 3
00:26:07.083                   : :Chapter 4
00:40:18.583                   : :Chapter 5
00:44:35.917                   : :Chapter 6
00:51:50.750                   : :Chapter 7
00:55:14.500                   : :Chapter 8
01:03:29.000                   : :Chapter 9
01:14:28.167                   : :Chapter 10
01:20:29.083                   : :Chapter 11
01:27:57.708                   : :Chapter 12
01:39:39.208                   : :Chapter 13
01:43:08.875                   : :Chapter 14
01:47:45.667                   : :Chapter 15
01:55:37.500                   : :Chapter 16
01:58:47.333                   : :Chapter 17