Back to the Future III 1990 x264 720p Esub BluRay Dual Audio English Hindi Sadeemrdp GOPI SAHI


Back to the Future Part III (1990)

 
Stranded in 1955, Marty McFly learns about the death of Doc Brown in 1885 and must travel back in time to save him. With no fuel readily available for the DeLorean, the two must figure how to escape the Old West before Emmett is murdered.

Director:

Robert Zemeckis

Writers:

Robert Zemeckis (characters), Bob Gale (characters) |3 more credits »

7.4/10
385,823
Directed byRobert Zemeckis
Produced by
Screenplay byBob Gale
Story by
  • Robert Zemeckis
  • Bob Gale
Based on
Characters
by
  • Robert Zemeckis
  • Bob Gale
Starring
Music byAlan Silvestri
CinematographyDean Cundey
Edited by
Production
companies
Distributed byUniversal Pictures[1]
Release date
  • May 25, 1990
Running time
119 minutes[2]
CountryUnited States
LanguageEnglish
Budget$40 million[3]
Box office$246.1 million[3]


Format                         : Matroska
Format version                 : Version 4
File size                      : 932 MiB
Duration                       : 1 h 58 min
Overall bit rate               : 1 100 kb/s
Movie name                     : Back to the Future III 1990 GOPI SAHI
Encoded date                   : UTC 2020-05-21 16:01:58
Writing application            : mkvmerge v46.0.0 ('No Deeper Escape') 32-bit
Writing library                : libebml v1.3.10 + libmatroska v1.5.2

Video
ID                             : 1
Format                         : AVC
Format/Info                    : Advanced Video Codec
Format profile                 : [email protected]
Format settings                : CABAC / 5 Ref Frames
Format settings, CABAC         : Yes
Format settings, Reference fra : 5 frames
Codec ID                       : V_MPEG4/ISO/AVC
Duration                       : 1 h 58 min
Bit rate                       : 899 kb/s
Width                          : 1 280 pixels
Height                         : 694 pixels
Display aspect ratio           : 1.85:1
Frame rate mode                : Constant
Frame rate                     : 23.976 (24000/1001) FPS
Color space                    : YUV
Chroma subsampling             : 4:2:0
Bit depth                      : 8 bits
Scan type                      : Progressive
Bits/(Pixel*Frame)             : 0.042
Stream size                    : 761 MiB (82%)
Title                          : GOPI SAHI
Writing library                : x264 core 157 r2935 545de2f

Audio #1
ID                             : 2
Format                         : AAC LC
Format/Info                    : Advanced Audio Codec Low Complexity
Codec ID                       : A_AAC-2
Duration                       : 1 h 58 min
Bit rate                       : 96.0 kb/s
Channel(s)                     : 2 channels
Channel layout                 : L R
Sampling rate                  : 48.0 kHz
Frame rate                     : 46.875 FPS (1024 SPF)
Compression mode               : Lossy
Delay relative to video        : 149 ms
Stream size                    : 81.6 MiB (9%)
Title                          : GOPI SAHI
Language                       : Hindi
Default                        : Yes
Forced                         : No

Audio #2
ID                             : 3
Format                         : AAC LC
Format/Info                    : Advanced Audio Codec Low Complexity
Codec ID                       : A_AAC-2
Duration                       : 1 h 58 min
Bit rate                       : 96.0 kb/s
Channel(s)                     : 2 channels
Channel layout                 : L R
Sampling rate                  : 48.0 kHz
Frame rate                     : 46.875 FPS (1024 SPF)
Compression mode               : Lossy
Delay relative to video        : -21 ms
Stream size                    : 81.7 MiB (9%)
Title                          : GOPI SAHI
Language                       : English
Default                        : No
Forced                         : No

Text
ID                             : 4
Format                         : VobSub
Muxing mode                    : zlib
Codec ID                       : S_VOBSUB
Codec ID/Info                  : Picture based subtitle format used on DVDs
Duration                       : 1 h 51 min
Bit rate                       : 9 698 b/s
Count of elements              : 3217
Stream size                    : 7.75 MiB (1%)
Title                          : GOPI SAHI
Language                       : English
Default                        : Yes
Forced                         : Yes