Andhadhun 2018 x264 720p Esub BluRay Hindi Sadeemrdp GOPI SAHI

Andhadhun (2018)

Not Rated | |Crime, Thriller |5 October 2018 (USA)
A series of mysterious events change the life of a blind pianist, who must now report a crime that he should technically know nothing of.

Director:

Sriram Raghavan
8.3/10
Directed bySriram Raghavan
Produced bySudhanshu Vats
Ajit Andhare
Gaurav Nanda
Ashok Vasodia
Kewal Garg
Sanjay Routray
Written bySriram Raghavan
Hemanth Rao
Pooja Ladha Surti
Arijit Biswas
Yogesh Chandekar
Based onL'accordeur (The Piano Tuner)[1]
Starring
Music bySongs:
Amit Trivedi
Raftaar
Girish Nakod
Score:
Daniel B. George
CinematographyK. U. Mohanan
Edited byPooja Ladha Surti
Production
company
Viacom 18 Motion Pictures
Matchbox Pictures
Distributed byViacom 18 Motion Pictures (India)
Eros International (International)
Release date
  • 5 October 2018 (India)
Running time
138 minutes[2]
CountryIndia
LanguageHindi
Budget₹320 million[3]
Box office₹4.56 billion[4]


Format                         : Matroska
Format version                 : Version 4
File size                      : 1 007 MiB
Duration                       : 2 h 19 min
Overall bit rate               : 1 008 kb/s
Movie name                     : Andhadhun 2018 GOPI SAHI

Video
ID                             : 1
Format                         : AVC
Format/Info                    : Advanced Video Codec
Format profile                 : [email protected]
Format settings                : CABAC / 5 Ref Frames
Format settings, CABAC         : Yes
Format settings, Reference fra : 5 frames
Codec ID                       : V_MPEG4/ISO/AVC
Duration                       : 2 h 19 min
Bit rate                       : 899 kb/s
Width                          : 1 280 pixels
Height                         : 534 pixels
Display aspect ratio           : 2.40:1
Frame rate mode                : Constant
Frame rate                     : 24.000 FPS
Color space                    : YUV
Chroma subsampling             : 4:2:0
Bit depth                      : 8 bits
Scan type                      : Progressive
Bits/(Pixel*Frame)             : 0.055
Stream size                    : 897 MiB (89%)
Title                          : GOPI SAHI
Writing library                : x264 core 157 r2935 545de2f

Audio
ID                             : 2
Format                         : AAC LC
Format/Info                    : Advanced Audio Codec Low Complexity
Codec ID                       : A_AAC-2
Duration                       : 2 h 19 min
Bit rate                       : 96.0 kb/s
Channel(s)                     : 2 channels
Channel layout                 : L R
Sampling rate                  : 48.0 kHz
Frame rate                     : 46.875 FPS (1024 SPF)
Compression mode               : Lossy
Delay relative to video        : -21 ms
Stream size                    : 94.7 MiB (9%)
Title                          : GOPI SAHI
Language                       : Hindi
Default                        : Yes
Forced                         : No

Text
ID                             : 3
Format                         : PGS
Muxing mode                    : zlib
Codec ID                       : S_HDMV/PGS
Codec ID/Info                  : Picture based subtitle format used on BDs/HD-DVDs
Duration                       : 2 h 6 min
Bit rate                       : 19.9 kb/s
Count of elements              : 2349
Stream size                    : 18.0 MiB (2%)
Title                          : GOPI SAHI
Language                       : English
Default                        : Yes
Forced                         : No

Menu
00:00:00.000                   : :Chapter 1
00:04:27.458                   : :Chapter 2
00:13:24.417                   : :Chapter 3
00:19:27.625                   : :Chapter 4
00:23:45.167                   : :Chapter 5
00:25:25.750                   : :Chapter 6
00:43:52.250                   : :Chapter 7
00:51:01.750                   : :Chapter 8
01:00:57.125                   : :Chapter 9
01:04:47.583                   : :Chapter 10
01:19:57.792                   : :Chapter 11
01:32:09.250                   : :Chapter 12
01:44:24.792                   : :Chapter 13
01:45:57.000                   : :Chapter 14
02:00:59.042                   : :Chapter 15
02:03:53.083                   : :Chapter 16