Ali G Indahouse 2002 x264 720p Esub BluRay Dual Audio English Hindi Sadeemrdp GOPI SAHI


Ali G Indahouse (2002)


Ali G unwittingly becomes a pawn in the Chancellor's plot to overthrow the Prime Minister of Great Britain. However, Ali is embraced by the nation as a voice of the youth, making the PM and his government more popular than ever.

Director:

Mark Mylod

6.2/10
81,908

Directed byMark Mylod
Produced by
Written by
  • Sacha Baron Cohen
  • Dan Mazer
Based onAli G
by Sacha Baron Cohen
Starring
  • Sacha Baron Cohen
  • Michael Gambon
Music byAdam F
CinematographyAshley Rowe
Edited byPaul Knight
Production
companies
Distributed by
Release date
  • 22 March 2002
Running time
88 minutes[1]
CountryUnited Kingdom
LanguageEnglish
Budget
  • £5 million
  • ($7 million)
Box office$25.9 million[2]
 

Format                         : Matroska
Format version                 : Version 4
File size                      : 692 MiB
Duration                       : 1 h 27 min
Overall bit rate               : 1 111 kb/s
Movie name                     : Ali G Indahouse 2002 GOPI SAHI
Encoded date                   : UTC 2020-05-27 22:46:11
Writing application            : mkvmerge v46.0.0 ('No Deeper Escape') 32-bit
Writing library                : libebml v1.3.10 + libmatroska v1.5.2

Video
ID                             : 1
Format                         : AVC
Format/Info                    : Advanced Video Codec
Format profile                 : [email protected]
Format settings                : CABAC / 5 Ref Frames
Format settings, CABAC         : Yes
Format settings, Reference fra : 5 frames
Codec ID                       : V_MPEG4/ISO/AVC
Duration                       : 1 h 27 min
Bit rate                       : 899 kb/s
Width                          : 1 280 pixels
Height                         : 694 pixels
Display aspect ratio           : 1.85:1
Frame rate mode                : Constant
Frame rate                     : 23.976 (24000/1001) FPS
Color space                    : YUV
Chroma subsampling             : 4:2:0
Bit depth                      : 8 bits
Scan type                      : Progressive
Bits/(Pixel*Frame)             : 0.042
Stream size                    : 559 MiB (81%)
Title                          : GOPI SAHI
Writing library                : x264 core 157 r2935 545de2f

Audio #1
ID                             : 2
Format                         : AAC LC
Format/Info                    : Advanced Audio Codec Low Complexity
Codec ID                       : A_AAC-2
Duration                       : 1 h 27 min
Bit rate                       : 96.0 kb/s
Channel(s)                     : 2 channels
Channel layout                 : L R
Sampling rate                  : 48.0 kHz
Frame rate                     : 46.875 FPS (1024 SPF)
Compression mode               : Lossy
Delay relative to video        : 10 ms
Stream size                    : 60.0 MiB (9%)
Title                          : GOPI SAHI
Language                       : Hindi
Default                        : Yes
Forced                         : No

Audio #2
ID                             : 3
Format                         : AAC LC
Format/Info                    : Advanced Audio Codec Low Complexity
Codec ID                       : A_AAC-2
Duration                       : 1 h 27 min
Bit rate                       : 96.0 kb/s
Channel(s)                     : 2 channels
Channel layout                 : L R
Sampling rate                  : 48.0 kHz
Frame rate                     : 46.875 FPS (1024 SPF)
Compression mode               : Lossy
Delay relative to video        : -21 ms
Stream size                    : 59.9 MiB (9%)
Title                          : GOPI SAHI
Language                       : English
Default                        : No
Forced                         : No

Text
ID                             : 4
Format                         : PGS
Muxing mode                    : zlib
Codec ID                       : S_HDMV/PGS
Codec ID/Info                  : Picture based subtitle format used on BDs/HD-DVDs
Duration                       : 1 h 26 min
Bit rate                       : 35.7 kb/s
Count of elements              : 2648
Stream size                    : 22.1 MiB (3%)
Title                          : GOPI SAHI
Language                       : English
Default                        : Yes
Forced                         : Yes

Menu
00:00:00.000                   : :Straight Outta Staines
00:04:44.201                   : :The Dog's Bollocks
00:05:54.855                   : :The Berkshire Turf Wars
00:10:29.921                   : :Keepin' It Real
00:13:37.317                   : :Dishonourable Member
00:14:27.617                   : :Me Julie
00:15:06.406                   : :Ali's Dream
00:17:00.019                   : :Ali On Hunger Strike
00:24:38.519                   : :Fear And Loathing On The Campaign Trail
00:30:33.665                   : :Ali's Respectable Member
00:31:52.994                   : :R-E-S-T-E-C-P
00:36:14.547                   : :Sex & Drugs & Customs & Excise
00:39:28.783                   : :Ali's Manifesto
00:42:24.042                   : :A Complete Bell End
00:50:36.659                   : :Peace
00:55:38.085                   : :Missing Me Julie
00:56:53.994                   : :The Last Temptation Of Ali G
01:00:24.329                   : :Drive By F.M.
01:04:22.150                   : :Mission Well Tricky
01:21:26.006                   : :Da (Bell) End