8 The Fate Of The Furious 2017 x264 720p Esub BluRay Dual Audio English Hindi Sadeemrdp GOPI SAHI

The Fate of the Furious (2017)


When a mysterious woman seduces Dominic Toretto into the world of terrorism and a betrayal of those closest to him, the crew face trials that will test them as never before.

Director:

F. Gary Gray

Writers:

Gary Scott Thompson (based on characters created by), Chris Morgan

6.7/10
196,293
Directed byF. Gary Gray
Produced by
Written byChris Morgan
Based onCharacters
by Gary Scott Thompson
Starring
Music byBrian Tyler
CinematographyStephen F. Windon
Edited by
Production
company
Distributed byUniversal Pictures
Release date
  • April 4, 2017 (Berlin)
  • April 14, 2017 (United States)
Running time
136 minutes
CountryUnited States
LanguageEnglish
Budget$250 million[1][2]
Box office$1.236 billion[3]

Format                         : Matroska
Format version                 : Version 4
File size                      : 1.08 GiB
Duration                       : 2 h 15 min
Overall bit rate               : 1 133 kb/s
Movie name                     : 8 The Fate of the Furious 2017 GOPI SAHI
Encoded date                   : UTC 2020-05-31 09:01:12

Video
ID                             : 1
Format                         : AVC
Format/Info                    : Advanced Video Codec
Format profile                 : [email protected]
Format settings                : CABAC / 5 Ref Frames
Format settings, CABAC         : Yes
Format settings, Reference fra : 5 frames
Codec ID                       : V_MPEG4/ISO/AVC
Duration                       : 2 h 15 min
Bit rate                       : 899 kb/s
Width                          : 1 280 pixels
Height                         : 536 pixels
Display aspect ratio           : 2.40:1
Frame rate mode                : Constant
Frame rate                     : 23.976 (24000/1001) FPS
Color space                    : YUV
Chroma subsampling             : 4:2:0
Bit depth                      : 8 bits
Scan type                      : Progressive
Bits/(Pixel*Frame)             : 0.055
Stream size                    : 874 MiB (79%)
Title                          : GOPI SAHI
Writing library                : x264 core 157 r2935 545de2f

Audio #1
ID                             : 2
Format                         : AAC LC
Format/Info                    : Advanced Audio Codec Low Complexity
Codec ID                       : A_AAC-2
Duration                       : 2 h 15 min
Bit rate                       : 96.0 kb/s
Channel(s)                     : 2 channels
Channel layout                 : L R
Sampling rate                  : 48.0 kHz
Frame rate                     : 46.875 FPS (1024 SPF)
Compression mode               : Lossy
Delay relative to video        : -21 ms
Stream size                    : 93.9 MiB (9%)
Title                          : GOPI SAHI
Language                       : Hindi
Default                        : Yes
Forced                         : No

Audio #2
ID                             : 3
Format                         : AAC LC
Format/Info                    : Advanced Audio Codec Low Complexity
Codec ID                       : A_AAC-2
Duration                       : 2 h 15 min
Bit rate                       : 96.0 kb/s
Channel(s)                     : 2 channels
Channel layout                 : L R
Sampling rate                  : 48.0 kHz
Frame rate                     : 46.875 FPS (1024 SPF)
Compression mode               : Lossy
Delay relative to video        : -21 ms
Stream size                    : 93.9 MiB (9%)
Title                          : GOPI SAHI
Language                       : English
Default                        : No
Forced                         : No

Text #1
ID                             : 4
Format                         : PGS
Muxing mode                    : zlib
Codec ID                       : S_HDMV/PGS
Codec ID/Info                  : Picture based subtitle format used on BDs/HD-DVDs
Duration                       : 2 h 14 min
Bit rate                       : 24.8 kb/s
Count of elements              : 3093
Stream size                    : 23.9 MiB (2%)
Title                          : GOPI SAHI
Language                       : Hindi
Default                        : Yes
Forced                         : Yes

Text #2
ID                             : 5
Format                         : PGS
Muxing mode                    : zlib
Codec ID                       : S_HDMV/PGS
Codec ID/Info                  : Picture based subtitle format used on BDs/HD-DVDs
Duration                       : 2 h 4 min
Bit rate                       : 40.5 kb/s
Count of elements              : 3667
Stream size                    : 35.9 MiB (3%)
Title                          : GOPI SAHI
Language                       : English
Default                        : No
Forced                         : No

Text #3
ID                             : 6
Format                         : PGS
Muxing mode                    : zlib
Codec ID                       : S_HDMV/PGS
Codec ID/Info                  : Picture based subtitle format used on BDs/HD-DVDs
Duration                       : 1 h 48 min
Bit rate                       : 674 b/s
Count of elements              : 105
Stream size                    : 538 KiB (0%)
Title                          : GOPI SAHI
Language                       : English
Default                        : No
Forced                         : No

Text #4
ID                             : 7
Format                         : PGS
Muxing mode                    : zlib
Codec ID                       : S_HDMV/PGS
Codec ID/Info                  : Picture based subtitle format used on BDs/HD-DVDs
Duration                       : 2 h 6 min
Bit rate                       : 61.9 kb/s
Count of elements              : 4163
Stream size                    : 56.2 MiB (5%)
Title                          : GOPI SAHI
Language                       : English
Default                        : No
Forced                         : No

Menu
00:00:00.000                   : :Chapter 1
00:13:08.913                   : :Chapter 2
00:20:30.771                   : :Chapter 3
00:26:38.680                   : :Chapter 4
00:32:26.778                   : :Chapter 5
00:36:40.824                   : :Chapter 6
00:43:35.613                   : :Chapter 7
00:47:45.780                   : :Chapter 8
00:56:00.732                   : :Chapter 9
01:04:08.303                   : :Chapter 10
01:09:08.061                   : :Chapter 11
01:13:24.275                   : :Chapter 12
01:21:25.714                   : :Chapter 13
01:29:29.948                   : :Chapter 14
01:35:12.457                   : :Chapter 15
01:39:55.781                   : :Chapter 16
01:45:00.711                   : :Chapter 17
01:53:01.900                   : :Chapter 18
02:01:51.262                   : :Chapter 19
02:06:45.098                   : :Chapter 20