7 Khoon Maaf 2011 x264 720p Esub BluRay Hindi Sadeemrdp @ GOPI SAHI

Seven Sins Forgiven (2011)

7 Khoon Maaf (original title)
Susanna's quest for love leads to a series of marriages, each ending in the mysterious death of her latest husband.

Director:

Vishal Bhardwaj

Writers:

Ruskin Bond (short story), Matthew Robbins (screenplay) |1 more credit »

6.1/10
5,229
Directed byVishal Bhardwaj
Produced byRonnie Screwvala
Vishal Bhardwaj
Screenplay byMatthew Robbins
Vishal Bhardwaj
Based onSusanna's Seven Husbands
by Ruskin Bond
StarringPriyanka Chopra
Vivaan Shah
John Abraham
Irrfan Khan
Aleksandr Dyachenko
Annu Kapoor
Neil Nitin Mukesh
Naseeruddin Shah
Usha Uthup
Narrated byVivaan Shah
Music byVishal Bhardwaj
CinematographyRanjan Palit
Edited byA. Sreekar Prasad
Production
company
VB Pictures
Distributed byUTV Spotboy
Release date
  • 18 February 2011
Running time
147 minutes[1]
CountryIndia
LanguageHindi
Budget15 crore (US$2.1 million)[2]
Box office33 crore (US$4.6 million)[3]



7 Khoon Maaf 2011 x264 720p Esub BluRay Hindi Sadeemrdp @ GOPI SAHI

Format                         : Matroska
Format version                 : Version 4
File size                      : 1.03 GiB
Duration                       : 2 h 27 min
Overall bit rate               : 997 kb/s
Movie name                     :  7 Khoon Maaf 2011 GOPI SAHI

Video
ID                             : 1
Format                         : AVC
Format/Info                    : Advanced Video Codec
Format profile                 : [email protected]
Format settings                : CABAC / 5 Ref Frames
Format settings, CABAC         : Yes
Format settings, Reference fra : 5 frames
Codec ID                       : V_MPEG4/ISO/AVC
Duration                       : 2 h 27 min
Bit rate                       : 899 kb/s
Width                          : 1 280 pixels
Height                         : 546 pixels
Display aspect ratio           : 2.35:1
Frame rate mode                : Constant
Frame rate                     : 23.976 (24000/1001) FPS
Color space                    : YUV
Chroma subsampling             : 4:2:0
Bit depth                      : 8 bits
Scan type                      : Progressive
Bits/(Pixel*Frame)             : 0.054
Stream size                    : 949 MiB (90%)
Title                          : GOPI SAHI
Writing library                : x264 core 157 r2935 545de2f

Audio
ID                             : 2
Format                         : AAC LC
Format/Info                    : Advanced Audio Codec Low Complexity
Codec ID                       : A_AAC-2
Duration                       : 2 h 27 min
Bit rate                       : 96.0 kb/s
Channel(s)                     : 2 channels
Channel layout                 : L R
Sampling rate                  : 48.0 kHz
Frame rate                     : 46.875 FPS (1024 SPF)
Compression mode               : Lossy
Delay relative to video        : -21 ms
Stream size                    : 102 MiB (10%)
Title                          : GOPI SAHI
Language                       : Hindi
Default                        : Yes
Forced                         : No