7 Furious 7 2015 Extended Cut x264 720p Esub BluRay Dual Audio English Hindi Sadeemrdp GOPI SAHI

Furious 7 (2015)

Fast & Furious 7 (original title)

Deckard Shaw seeks revenge against Dominic Toretto and his family for his comatose brother.

Director:

James Wan

Writers:

Chris Morgan, Gary Scott Thompson (characters)

7.2/10


Directed byJames Wan
Produced by
Written byChris Morgan
Based onCharacters
by Gary Scott Thompson
Starring
Music byBrian Tyler
Cinematography
Edited by
Production
company
Distributed byUniversal Pictures
Release date
Running time
137 minutes[1]
CountryUnited States[2]
LanguageEnglish
Budget$190 million[3][4]
Box office$1.515 billion[3]


Format                         : Matroska
Format version                 : Version 4
File size                      : 1.09 GiB
Duration                       : 2 h 19 min
Overall bit rate               : 1 112 kb/s
Movie name                     : 7 Furious 7 2015 Extended Cut GOPI SAHI
Encoded date                   : UTC 2020-05-31 08:58:59

Video
ID                             : 1
Format                         : AVC
Format/Info                    : Advanced Video Codec
Format profile                 : [email protected]
Format settings                : CABAC / 5 Ref Frames
Format settings, CABAC         : Yes
Format settings, Reference fra : 5 frames
Codec ID                       : V_MPEG4/ISO/AVC
Duration                       : 2 h 19 min
Bit rate                       : 899 kb/s
Width                          : 1 280 pixels
Height                         : 534 pixels
Display aspect ratio           : 2.40:1
Frame rate mode                : Constant
Frame rate                     : 23.976 (24000/1001) FPS
Color space                    : YUV
Chroma subsampling             : 4:2:0
Bit depth                      : 8 bits
Scan type                      : Progressive
Bits/(Pixel*Frame)             : 0.055
Stream size                    : 899 MiB (81%)
Title                          : GOPI SAHI
Writing library                : x264 core 157 r2935 545de2f

Audio #1
ID                             : 2
Format                         : AAC LC
Format/Info                    : Advanced Audio Codec Low Complexity
Codec ID                       : A_AAC-2
Duration                       : 2 h 19 min
Bit rate                       : 96.0 kb/s
Channel(s)                     : 2 channels
Channel layout                 : L R
Sampling rate                  : 48.0 kHz
Frame rate                     : 46.875 FPS (1024 SPF)
Compression mode               : Lossy
Delay relative to video        : -21 ms
Stream size                    : 96.5 MiB (9%)
Title                          : GOPI SAHI
Language                       : Hindi
Default                        : Yes
Forced                         : No

Audio #2
ID                             : 3
Format                         : AAC LC
Format/Info                    : Advanced Audio Codec Low Complexity
Codec ID                       : A_AAC-2
Duration                       : 2 h 19 min
Bit rate                       : 96.0 kb/s
Channel(s)                     : 2 channels
Channel layout                 : L R
Sampling rate                  : 48.0 kHz
Frame rate                     : 46.875 FPS (1024 SPF)
Compression mode               : Lossy
Delay relative to video        : -21 ms
Stream size                    : 96.6 MiB (9%)
Title                          : GOPI SAHI
Language                       : English
Default                        : No
Forced                         : No

Text #1
ID                             : 4
Format                         : PGS
Muxing mode                    : zlib
Codec ID                       : S_HDMV/PGS
Codec ID/Info                  : Picture based subtitle format used on BDs/HD-DVDs
Duration                       : 2 h 19 min
Bit rate                       : 22.2 kb/s
Count of elements              : 2833
Stream size                    : 22.0 MiB (2%)
Title                          : GOPI SAHI
Language                       : Hindi
Default                        : Yes
Forced                         : Yes

Text #2
ID                             : 5
Format                         : PGS
Muxing mode                    : zlib
Codec ID                       : S_HDMV/PGS
Codec ID/Info                  : Picture based subtitle format used on BDs/HD-DVDs
Duration                       : 2 h 19 min
Bit rate                       : 896 b/s
Count of elements              : 118
Stream size                    : 918 KiB (0%)
Title                          : GOPI SAHI
Language                       : Hindi
Default                        : No
Forced                         : No

Text #3
ID                             : 6
Format                         : PGS
Muxing mode                    : zlib
Codec ID                       : S_HDMV/PGS
Codec ID/Info                  : Picture based subtitle format used on BDs/HD-DVDs
Duration                       : 2 h 10 min
Bit rate                       : 33.7 kb/s
Count of elements              : 3341
Stream size                    : 31.6 MiB (3%)
Title                          : GOPI SAHI
Language                       : English
Default                        : No
Forced                         : No

Menu #1
00:00:00.000                   : :Chapter 1
00:04:39.946                   : :Chapter 2
00:11:29.480                   : :Chapter 3
00:16:39.332                   : :Chapter 4
00:25:54.053                   : :Chapter 5
00:33:43.897                   : :Chapter 6
00:41:44.585                   : :Chapter 7
00:46:41.048                   : :Chapter 8
00:52:10.711                   : :Chapter 9
01:02:31.414                   : :Chapter 10
01:06:16.681                   : :Chapter 11
01:14:16.869                   : :Chapter 12
01:22:34.032                   : :Chapter 13
01:33:21.137                   : :Chapter 14
01:38:27.485                   : :Chapter 15
01:45:40.084                   : :Chapter 16
01:53:54.453                   : :Chapter 17
01:58:31.271                   : :Chapter 18
02:06:19.989                   : :Chapter 19
02:11:31.175                   : :Chapter 20

Menu #2
00:00:00.000                   : en:Chapter 01
00:04:39.946                   : en:Chapter 02
00:11:29.480                   : en:Chapter 03
00:16:39.290                   : en:Chapter 04
00:25:54.052                   : en:Chapter 05
00:33:43.897                   : en:Chapter 06
00:41:44.585                   : en:Chapter 07
00:46:41.006                   : en:Chapter 08
00:52:10.711                   : en:Chapter 09
01:02:31.414                   : en:Chapter 10
01:06:16.681                   : en:Chapter 11
01:14:16.869                   : en:Chapter 12
01:22:34.032                   : en:Chapter 13
01:33:21.137                   : en:Chapter 14
01:38:27.485                   : en:Chapter 15
01:45:40.084                   : en:Chapter 16
01:53:54.452                   : en:Chapter 17
01:58:31.062                   : en:Chapter 18
02:06:19.864                   : en:Chapter 19
02:11:31.175                   : en:Chapter 20