5 Pirates Of The Caribbean 2017 x264 720p Esub BluRay Dual Audio English Hindi GOPISAHI

Pirates of the Caribbean: Dead Men Tell No Tales (2017)

Captain Jack Sparrow is pursued by old rival Captain Salazar and a crew of deadly ghosts who have escaped from the Devil's Triangle. They're determined to kill every pirate at sea...notably Jack.

Writers:

Jeff Nathanson (screenplay by), Jeff Nathanson (story by) |5 more credits »

6.6/10




Directed by
Produced byJerry Bruckheimer
Screenplay byJeff Nathanson
Story by
Based on
Starring
Music byGeoff Zanelli
CinematographyPaul Cameron[1]
Edited by
Production
company
Distributed byWalt Disney Studios
Motion Pictures
Release date
  • May 11, 2017 (Shanghai)[2]
  • May 26, 2017 (United States)
Running time
129 minutes[3]
CountryUnited States
LanguageEnglish
Budget$230–320 million[4]
Box office$794.9 million[5]



Format                         : Matroska
Format version                 : Version 4
File size                      : 1 021 MiB
Duration                       : 2 h 9 min
Overall bit rate               : 1 105 kb/s
Movie name                     : Pirates of the Caribbean: Dead Men Tell No Tales 2017 GOPI SAHI

Video
ID                             : 1
Format                         : AVC
Format/Info                    : Advanced Video Codec
Format profile                 : [email protected]
Format settings                : CABAC / 5 Ref Frames
Format settings, CABAC         : Yes
Format settings, Reference fra : 5 frames
Codec ID                       : V_MPEG4/ISO/AVC
Duration                       : 2 h 9 min
Bit rate                       : 899 kb/s
Width                          : 1 280 pixels
Height                         : 534 pixels
Display aspect ratio           : 2.40:1
Frame rate mode                : Constant
Frame rate                     : 23.976 (24000/1001) FPS
Color space                    : YUV
Chroma subsampling             : 4:2:0
Bit depth                      : 8 bits
Scan type                      : Progressive
Bits/(Pixel*Frame)             : 0.055
Stream size                    : 830 MiB (81%)
Title                          : GOPI SAHI
Writing library                : x264 core 157 r2935 545de2f

Audio #1
ID                             : 2
Format                         : AAC LC
Format/Info                    : Advanced Audio Codec Low Complexity
Codec ID                       : A_AAC-2
Duration                       : 2 h 9 min
Bit rate                       : 96.0 kb/s
Channel(s)                     : 2 channels
Channel layout                 : L R
Sampling rate                  : 48.0 kHz
Frame rate                     : 46.875 FPS (1024 SPF)
Compression mode               : Lossy
Delay relative to video        : -21 ms
Stream size                    : 89.0 MiB (9%)
Title                          : GOPI SAHI
Language                       : Hindi
Default                        : Yes
Forced                         : No

Audio #2
ID                             : 3
Format                         : AAC LC
Format/Info                    : Advanced Audio Codec Low Complexity
Codec ID                       : A_AAC-2
Duration                       : 2 h 9 min
Bit rate                       : 96.0 kb/s
Channel(s)                     : 2 channels
Channel layout                 : L R
Sampling rate                  : 48.0 kHz
Frame rate                     : 46.875 FPS (1024 SPF)
Compression mode               : Lossy
Delay relative to video        : -21 ms
Stream size                    : 89.0 MiB (9%)
Title                          : GOPI SAHI
Language                       : English
Default                        : No
Forced                         : No

Text #1
ID                             : 4
Format                         : PGS
Muxing mode                    : zlib
Codec ID                       : S_HDMV/PGS
Codec ID/Info                  : Picture based subtitle format used on BDs/HD-DVDs
Duration                       : 13 min 6 s
Bit rate                       : 610 b/s
Count of elements              : 8
Stream size                    : 58.6 KiB (0%)
Title                          : GOPI SAHI
Language                       : Hindi
Default                        : Yes
Forced                         : Yes

Text #2
ID                             : 5
Format                         : PGS
Muxing mode                    : zlib
Codec ID                       : S_HDMV/PGS
Codec ID/Info                  : Picture based subtitle format used on BDs/HD-DVDs
Duration                       : 2 h 7 min
Bit rate                       : 33.1 kb/s
Count of elements              : 3544
Stream size                    : 30.3 MiB (3%)
Title                          : GOPI SAHI
Language                       : English
Default                        : No
Forced                         : No

Menu
00:00:00.000                   : :Chapter 1
00:05:49.516                   : :Chapter 2
00:08:34.222                   : :Chapter 3
00:13:40.820                   : :Chapter 4
00:16:29.155                   : :Chapter 5
00:22:33.853                   : :Chapter 6
00:25:19.268                   : :Chapter 7
00:28:06.101                   : :Chapter 8
00:31:41.775                   : :Chapter 9
00:33:44.814                   : :Chapter 10
00:37:02.053                   : :Chapter 11
00:42:27.712                   : :Chapter 12
00:49:09.071                   : :Chapter 13
00:54:00.279                   : :Chapter 14
00:57:19.394                   : :Chapter 15
01:00:38.718                   : :Chapter 16
01:08:29.939                   : :Chapter 17
01:11:57.021                   : :Chapter 18
01:16:50.940                   : :Chapter 19
01:19:27.596                   : :Chapter 20
01:25:04.808                   : :Chapter 21
01:27:42.174                   : :Chapter 22
01:31:43.790                   : :Chapter 23
01:38:22.814                   : :Chapter 24
01:42:36.776                   : :Chapter 25
01:47:23.562                   : :Chapter 26
01:52:58.689                   : :Chapter 27
01:59:10.101                   : :Chapter 28