5 Fast Five 2011 Extended x264 720p Esub BluRay Dual Audio English Hindi Sadeemrdp GOPI SAHI

Fast Five (2011)


Dominic Toretto and his crew of street racers plan a massive heist to buy their freedom while in the sights of a powerful Brazilian drug lord and a dangerous federal agent.

Director:

Justin Lin

Writers:

Chris Morgan, Gary Scott Thompson (characters)

7.3/10


Directed byJustin Lin
Produced by
Written byChris Morgan
Based onCharacters
by Gary Scott Thompson
Starring
Music byBrian Tyler
CinematographyStephen F. Windon
Edited by
Production
companies
Distributed byUniversal Pictures
Release date
Running time
130 minutes[1]
CountryUnited States
LanguageEnglish
Budget$125 million[2]
Box office$626.1 million[3]



Format                         : Matroska
Format version                 : Version 4
File size                      : 1.03 GiB
Duration                       : 2 h 11 min
Overall bit rate               : 1 124 kb/s
Movie name                     : Fast Five 2011 Extended GOPI SAHI

Video
ID                             : 1
Format                         : AVC
Format/Info                    : Advanced Video Codec
Format profile                 : [email protected]
Format settings                : CABAC / 5 Ref Frames
Format settings, CABAC         : Yes
Format settings, Reference fra : 5 frames
Codec ID                       : V_MPEG4/ISO/AVC
Duration                       : 2 h 11 min
Bit rate                       : 899 kb/s
Width                          : 1 280 pixels
Height                         : 544 pixels
Display aspect ratio           : 2.35:1
Frame rate mode                : Constant
Frame rate                     : 23.976 (24000/1001) FPS
Color space                    : YUV
Chroma subsampling             : 4:2:0
Bit depth                      : 8 bits
Scan type                      : Progressive
Bits/(Pixel*Frame)             : 0.054
Stream size                    : 846 MiB (80%)
Title                          : GOPI SAHI
Writing library                : x264 core 157 r2935 545de2f

Audio #1
ID                             : 2
Format                         : AAC LC
Format/Info                    : Advanced Audio Codec Low Complexity
Codec ID                       : A_AAC-2
Duration                       : 2 h 11 min
Bit rate                       : 96.0 kb/s
Channel(s)                     : 2 channels
Channel layout                 : L R
Sampling rate                  : 48.0 kHz
Frame rate                     : 46.875 FPS (1024 SPF)
Compression mode               : Lossy
Delay relative to video        : -21 ms
Stream size                    : 90.8 MiB (9%)
Title                          : GOPI SAHI
Language                       : Hindi
Default                        : Yes
Forced                         : No

Audio #2
ID                             : 3
Format                         : AAC LC
Format/Info                    : Advanced Audio Codec Low Complexity
Codec ID                       : A_AAC-2
Duration                       : 2 h 11 min
Bit rate                       : 96.0 kb/s
Channel(s)                     : 2 channels
Channel layout                 : L R
Sampling rate                  : 48.0 kHz
Frame rate                     : 46.875 FPS (1024 SPF)
Compression mode               : Lossy
Delay relative to video        : -21 ms
Stream size                    : 90.8 MiB (9%)
Title                          : GOPI SAHI
Language                       : English
Default                        : No
Forced                         : No

Text #1
ID                             : 4
Format                         : PGS
Muxing mode                    : zlib
Codec ID                       : S_HDMV/PGS
Codec ID/Info                  : Picture based subtitle format used on BDs/HD-DVDs
Duration                       : 2 h 4 min
Bit rate                       : 28.2 kb/s
Count of elements              : 2546
Stream size                    : 25.2 MiB (2%)
Title                          : GOPI SAHI
Language                       : English
Default                        : Yes
Forced                         : Yes

Text #2
ID                             : 5
Format                         : PGS
Muxing mode                    : zlib
Codec ID                       : S_HDMV/PGS
Codec ID/Info                  : Picture based subtitle format used on BDs/HD-DVDs
Duration                       : 2 h 5 min
Bit rate                       : 75.1 kb/s
Count of elements              : 4578
Stream size                    : 67.7 MiB (6%)
Title                          : GOPI SAHI
Language                       : English
Default                        : No
Forced                         : No

Menu
00:00:00.000                   : :00:00:00.000
00:07:45.840                   : :00:07:45.715
00:17:29.674                   : :00:17:29.465
00:23:02.047                   : :00:23:01.839
00:28:21.867                   : :00:28:21.575
00:35:05.395                   : :00:35:05.353
00:40:56.287                   : :00:40:56.037
00:48:51.429                   : :00:48:51.303
00:55:30.202                   : :00:55:29.993
01:04:07.552                   : :01:04:07.552
01:11:42.256                   : :01:11:42.256
01:19:23.467                   : :01:19:23.467
01:23:33.800                   : :01:23:33.800
01:28:56.331                   : :01:28:56.331
01:32:57.489                   : :01:32:57.489
01:40:27.104                   : :01:40:27.104
01:48:14.571                   : :01:48:14.530
01:56:03.915                   : :01:56:03.915
02:00:29.013                   : :02:00:29.013
02:04:38.262                   : :02:04:38.096