4 Pirates Of The Caribbean - On Stranger Tides 2011 x264 720p Esub BluRay Dual Audio English Hindi GOPISAHI

Pirates of the Caribbean: On Stranger Tides (2011)


6.6/10
467,965
Jack Sparrow and Barbossa embark on a quest to find the elusive fountain of youth, only to discover that Blackbeard and his daughter are after it too.

Director:

Rob Marshall

Writers:

Ted Elliott (screenplay), Terry Rossio (screenplay) |7 more credits »

irected byRob Marshall
Produced byJerry Bruckheimer
Written by
Based on
Starring
Music byHans Zimmer
CinematographyDariusz Wolski
Edited by
Production
companies
Distributed byWalt Disney Studios
Motion Pictures
Release date
Running time
137 minutes[1]
CountryUnited States
LanguageEnglish
Budget
  • $410.6 million (gross)
  • $378.5 million (net)[2]
Box office$1.046 billion[3]




Format                         : Matroska
Format version                 : Version 4
File size                      : 1.05 GiB
Duration                       : 2 h 17 min
Overall bit rate               : 1 092 kb/s
Movie name                     : Pirates of the Caribbean: On Stranger Tides 2011 GOPI SAHI

Video
ID                             : 1
Format                         : AVC
Format/Info                    : Advanced Video Codec
Format profile                 : [email protected]
Format settings                : CABAC / 5 Ref Frames
Format settings, CABAC         : Yes
Format settings, Reference fra : 5 frames
Codec ID                       : V_MPEG4/ISO/AVC
Duration                       : 2 h 16 min
Bit rate                       : 899 kb/s
Width                          : 1 280 pixels
Height                         : 534 pixels
Display aspect ratio           : 2.40:1
Frame rate mode                : Constant
Frame rate                     : 23.976 (24000/1001) FPS
Color space                    : YUV
Chroma subsampling             : 4:2:0
Bit depth                      : 8 bits
Scan type                      : Progressive
Bits/(Pixel*Frame)             : 0.055
Stream size                    : 877 MiB (81%)
Title                          : GOPI SAHI
Writing library                : x264 core 157 r2935 545de2f

Audio #1
ID                             : 2
Format                         : AAC LC
Format/Info                    : Advanced Audio Codec Low Complexity
Codec ID                       : A_AAC-2
Duration                       : 2 h 17 min
Bit rate                       : 96.0 kb/s
Channel(s)                     : 2 channels
Channel layout                 : L R
Sampling rate                  : 48.0 kHz
Frame rate                     : 46.875 FPS (1024 SPF)
Compression mode               : Lossy
Delay relative to video        : -14 ms
Stream size                    : 94.1 MiB (9%)
Title                          : GOPI SAHI
Language                       : Hindi
Default                        : Yes
Forced                         : No

Audio #2
ID                             : 3
Format                         : AAC LC
Format/Info                    : Advanced Audio Codec Low Complexity
Codec ID                       : A_AAC-2
Duration                       : 2 h 16 min
Bit rate                       : 96.0 kb/s
Channel(s)                     : 2 channels
Channel layout                 : L R
Sampling rate                  : 48.0 kHz
Frame rate                     : 46.875 FPS (1024 SPF)
Compression mode               : Lossy
Delay relative to video        : -21 ms
Stream size                    : 94.1 MiB (9%)
Title                          : GOPI SAHI
Language                       : English
Default                        : No
Forced                         : No

Text
ID                             : 4
Format                         : PGS
Muxing mode                    : zlib
Codec ID                       : S_HDMV/PGS
Codec ID/Info                  : Picture based subtitle format used on BDs/HD-DVDs
Duration                       : 2 h 5 min
Bit rate                       : 29.4 kb/s
Count of elements              : 2662
Stream size                    : 26.5 MiB (2%)
Title                          : GOPI SAHI
Language                       : English
Default                        : Yes
Forced                         : Yes

Menu #1
00:00:00.000                   : :Chapter 1
00:03:34.172                   : :Chapter 2
00:08:46.776                   : :Chapter 3
00:15:56.205                   : :Chapter 4
00:18:34.155                   : :Chapter 5
00:21:15.316                   : :Chapter 6
00:30:05.679                   : :Chapter 7
00:36:56.756                   : :Chapter 8
00:42:05.356                   : :Chapter 9
00:48:20.022                   : :Chapter 10
00:53:26.078                   : :Chapter 11
00:55:42.965                   : :Chapter 12
00:57:52.844                   : :Chapter 13
01:00:47.477                   : :Chapter 14
01:08:22.223                   : :Chapter 15
01:11:41.339                   : :Chapter 16
01:13:03.170                   : :Chapter 17
01:14:16.744                   : :Chapter 18
01:23:19.995                   : :Chapter 19
01:26:49.621                   : :Chapter 20
01:30:16.494                   : :Chapter 21
01:35:43.738                   : :Chapter 22
01:40:57.927                   : :Chapter 23
01:43:07.556                   : :Chapter 24
01:44:51.660                   : :Chapter 25
01:48:53.610                   : :Chapter 26
01:57:41.471                   : :Chapter 27
02:02:21.376                   : :Chapter 28
02:05:51.461                   : :Chapter 29
02:07:26.806                   : :Chapter 30

Menu #2
00:00:00.000                   : en:Chapter 01
00:03:34.172                   : en:Chapter 02
00:08:46.776                   : en:Chapter 03
00:15:56.080                   : en:Chapter 04
00:18:34.154                   : en:Chapter 05
00:21:15.315                   : en:Chapter 06
00:30:05.512                   : en:Chapter 07
00:36:56.756                   : en:Chapter 08
00:42:05.356                   : en:Chapter 09
00:48:20.022                   : en:Chapter 10
00:53:26.077                   : en:Chapter 11
00:55:42.964                   : en:Chapter 12
00:57:52.844                   : en:Chapter 13
01:00:47.477                   : en:Chapter 14
01:08:22.223                   : en:Chapter 15
01:11:41.338                   : en:Chapter 16
01:13:03.170                   : en:Chapter 17
01:14:16.743                   : en:Chapter 18
01:23:19.994                   : en:Chapter 19
01:26:49.621                   : en:Chapter 20
01:30:16.494                   : en:Chapter 21
01:35:43.737                   : en:Chapter 22
01:40:57.926                   : en:Chapter 23
01:43:07.556                   : en:Chapter 24
01:44:51.660                   : en:Chapter 25
01:48:53.610                   : en:Chapter 26
01:57:41.471                   : en:Chapter 27
02:02:21.375                   : en:Chapter 28
02:05:51.460                   : en:Chapter 29
02:07:26.805                   : en:Chapter 30