4 Fast & Furious 2009 x264 720p Esub BluRay Dual Audio English Hindi Sadeemrdp GOPI SAHI

Fast & Furious (2009)


PG-13 ||Action, Thriller|3 April 2009 (USA) 
 

Brian O'Conner, back working for the FBI in Los Angeles, teams up with Dominic Toretto to bring down a heroin importer by infiltrating his operation.

Director:

Writers:

Stars:

Directed byJustin Lin
Produced by
Written byChris Morgan
Based onCharacters
by Gary Scott Thompson
Starring
Music byBrian Tyler
CinematographyAmir Mokri
Edited by
Production
company
Distributed byUniversal Pictures[1]
Release date
Running time
107 minutes[2]
CountryUnited States
Japan[1]
LanguageEnglish
Budget$85 million[3]
Box office$363.2 million[3]



Format                         : Matroska
Format version                 : Version 4
File size                      : 851 MiB
Duration                       : 1 h 46 min
Overall bit rate               : 1 114 kb/s
Movie name                     : 4 Fast & Furious 2009 GOPI SAHI
Encoded date                   : UTC 2020-05-30 18:53:57

Video
ID                             : 1
Format                         : AVC
Format/Info                    : Advanced Video Codec
Format profile                 : [email protected]
Format settings                : CABAC / 5 Ref Frames
Format settings, CABAC         : Yes
Format settings, Reference fra : 5 frames
Codec ID                       : V_MPEG4/ISO/AVC
Duration                       : 1 h 46 min
Bit rate                       : 899 kb/s
Width                          : 1 280 pixels
Height                         : 534 pixels
Display aspect ratio           : 2.40:1
Frame rate mode                : Constant
Frame rate                     : 23.976 (24000/1001) FPS
Color space                    : YUV
Chroma subsampling             : 4:2:0
Bit depth                      : 8 bits
Scan type                      : Progressive
Bits/(Pixel*Frame)             : 0.055
Stream size                    : 686 MiB (81%)
Title                          : GOPI SAHI
Writing library                : x264 core 157 r2935 545de2f

Audio #1
ID                             : 2
Format                         : AAC LC
Format/Info                    : Advanced Audio Codec Low Complexity
Codec ID                       : A_AAC-2
Duration                       : 1 h 46 min
Bit rate                       : 96.0 kb/s
Channel(s)                     : 2 channels
Channel layout                 : L R
Sampling rate                  : 48.0 kHz
Frame rate                     : 46.875 FPS (1024 SPF)
Compression mode               : Lossy
Delay relative to video        : 410 ms
Stream size                    : 73.7 MiB (9%)
Title                          : GOPI SAHI
Language                       : Hindi
Default                        : Yes
Forced                         : No

Audio #2
ID                             : 3
Format                         : AAC LC
Format/Info                    : Advanced Audio Codec Low Complexity
Codec ID                       : A_AAC-2
Duration                       : 1 h 46 min
Bit rate                       : 96.0 kb/s
Channel(s)                     : 2 channels
Channel layout                 : L R
Sampling rate                  : 48.0 kHz
Frame rate                     : 46.875 FPS (1024 SPF)
Compression mode               : Lossy
Delay relative to video        : -21 ms
Stream size                    : 73.7 MiB (9%)
Title                          : GOPI SAHI
Language                       : English
Default                        : No
Forced                         : No

Text #1
ID                             : 4
Format                         : PGS
Muxing mode                    : zlib
Codec ID                       : S_HDMV/PGS
Codec ID/Info                  : Picture based subtitle format used on BDs/HD-DVDs
Duration                       : 1 h 37 min
Bit rate                       : 30.6 kb/s
Count of elements              : 1706
Stream size                    : 21.4 MiB (3%)
Title                          : GOPI SAHI
Language                       : Hindi
Default                        : Yes
Forced                         : Yes

Text #2
ID                             : 5
Format                         : PGS
Muxing mode                    : zlib
Codec ID                       : S_HDMV/PGS
Codec ID/Info                  : Picture based subtitle format used on BDs/HD-DVDs
Duration                       : 1 h 38 min
Bit rate                       : 27.1 kb/s
Count of elements              : 1976
Stream size                    : 19.0 MiB (2%)
Title                          : GOPI SAHI
Language                       : English
Default                        : No
Forced                         : No

Menu
00:00:00.000                   : :Chapter 1
00:07:26.655                   : :Chapter 2
00:11:47.290                   : :Chapter 3
00:16:47.006                   : :Chapter 4
00:24:24.088                   : :Chapter 5
00:29:05.452                   : :Chapter 6
00:34:05.293                   : :Chapter 7
00:37:30.790                   : :Chapter 8
00:46:07.348                   : :Chapter 9
00:53:37.381                   : :Chapter 10
00:58:15.158                   : :Chapter 11
01:04:49.219                   : :Chapter 12
01:07:29.879                   : :Chapter 13
01:12:01.859                   : :Chapter 14
01:14:46.524                   : :Chapter 15
01:20:36.332                   : :Chapter 16
01:25:03.265                   : :Chapter 17
01:29:09.386                   : :Chapter 18
01:35:54.999                   : :Chapter 19
01:39:24.959                   : :Chapter 20




MAGNET

TORRENT

MULTIUP

ANONFILES

BAYFILES

RECATY

GDRIVE

INDISHARE

UPLOADFILES

MEDIAFIRE

USAUPLOAD

ONLINE 720P