3 Pirates Of The Caribbean - At World's End 2007 x264 720p Esub BluRay Dual Audio English Hindi GOPISAHI

Pirates of the Caribbean: At World's End (2007)


Captain Barbossa, Will Turner and Elizabeth Swann must sail off the edge of the map, navigate treachery and betrayal, find Jack Sparrow, and make their final alliances for one last decisive battle.

Director:

Gore Verbinski

7.1/10
580,023

Directed byGore Verbinski
Produced byJerry Bruckheimer
Written by
Based on
Starring
Music byHans Zimmer
CinematographyDariusz Wolski
Edited byCraig Wood
Stephen Rivkin
Production
companies
Distributed byBuena Vista Pictures
Release date
Running time
168 minutes[1]
CountryUnited States
LanguageEnglish
Budget$300 million[2]
Box office$961 million[2]


Format                         : Matroska
Format version                 : Version 4
File size                      : 1.32 GiB
Duration                       : 2 h 49 min
Overall bit rate               : 1 113 kb/s
Movie name                     : Pirates of the Caribbean: At World's End 2007 GOPI SAHI
Video
ID                             : 1
Format                         : AVC
Format/Info                    : Advanced Video Codec
Format profile                 : [email protected]
Format settings                : CABAC / 5 Ref Frames
Format settings, CABAC         : Yes
Format settings, Reference fra : 5 frames
Codec ID                       : V_MPEG4/ISO/AVC
Duration                       : 2 h 48 min
Bit rate                       : 899 kb/s
Width                          : 1 280 pixels
Height                         : 534 pixels
Display aspect ratio           : 2.40:1
Frame rate mode                : Constant
Frame rate                     : 23.976 (24000/1001) FPS
Color space                    : YUV
Chroma subsampling             : 4:2:0
Bit depth                      : 8 bits
Scan type                      : Progressive
Bits/(Pixel*Frame)             : 0.055
Stream size                    : 1.06 GiB (80%)
Title                          : GOPI SAHI
Writing library                : x264 core 157 r2935 545de2f

Audio #1
ID                             : 2
Format                         : AAC LC
Format/Info                    : Advanced Audio Codec Low Complexity
Codec ID                       : A_AAC-2
Duration                       : 2 h 49 min
Bit rate                       : 96.0 kb/s
Channel(s)                     : 2 channels
Channel layout                 : L R
Sampling rate                  : 48.0 kHz
Frame rate                     : 46.875 FPS (1024 SPF)
Compression mode               : Lossy
Delay relative to video        : 1 s 545 ms
Stream size                    : 116 MiB (9%)
Title                          : GOPI SAHI
Language                       : Hindi
Default                        : Yes
Forced                         : No

Audio #2
ID                             : 3
Format                         : AAC LC
Format/Info                    : Advanced Audio Codec Low Complexity
Codec ID                       : A_AAC-2
Duration                       : 2 h 48 min
Bit rate                       : 96.0 kb/s
Channel(s)                     : 2 channels
Channel layout                 : L R
Sampling rate                  : 48.0 kHz
Frame rate                     : 46.875 FPS (1024 SPF)
Compression mode               : Lossy
Delay relative to video        : -21 ms
Stream size                    : 116 MiB (9%)
Title                          : GOPI SAHI
Language                       : English
Default                        : No
Forced                         : No

Text #1
ID                             : 4
Format                         : PGS
Muxing mode                    : zlib
Codec ID                       : S_HDMV/PGS
Codec ID/Info                  : Picture based subtitle format used on BDs/HD-DVDs
Duration                       : 2 h 37 min
Bit rate                       : 90 b/s
Count of elements              : 14
Stream size                    : 104 KiB (0%)
Title                          : GOPI SAHI
Language                       : Hindi
Default                        : Yes
Forced                         : Yes

Text #2
ID                             : 5
Format                         : PGS
Muxing mode                    : zlib
Codec ID                       : S_HDMV/PGS
Codec ID/Info                  : Picture based subtitle format used on BDs/HD-DVDs
Duration                       : 2 h 46 min
Bit rate                       : 33.3 kb/s
Count of elements              : 3054
Stream size                    : 39.6 MiB (3%)
Title                          : GOPI SAHI
Language                       : Hindi
Default                        : No
Forced                         : No

Text #3
ID                             : 6
Format                         : PGS
Muxing mode                    : zlib
Codec ID                       : S_HDMV/PGS
Codec ID/Info                  : Picture based subtitle format used on BDs/HD-DVDs
Duration                       : 2 h 46 min
Bit rate                       : 18.3 kb/s
Count of elements              : 3032
Stream size                    : 21.7 MiB (2%)
Title                          : GOPI SAHI
Language                       : English
Default                        : No
Forced                         : No

Text #4
ID                             : 7
Format                         : PGS
Muxing mode                    : zlib
Codec ID                       : S_HDMV/PGS
Codec ID/Info                  : Picture based subtitle format used on BDs/HD-DVDs
Duration                       : 2 h 46 min
Bit rate                       : 19.5 kb/s
Count of elements              : 3300
Stream size                    : 23.3 MiB (2%)
Title                          : GOPI SAHI
Language                       : English
Default                        : No
Forced                         : No

Menu
00:00:00.000                   : :Chapter 1
00:04:33.982                   : :Chapter 2
00:10:01.893                   : :Chapter 3
00:19:58.280                   : :Chapter 4
00:26:07.483                   : :Chapter 5
00:32:47.340                   : :Chapter 6
00:39:40.336                   : :Chapter 7
00:46:04.762                   : :Chapter 8
00:51:32.047                   : :Chapter 9
00:58:03.730                   : :Chapter 10
01:04:50.678                   : :Chapter 11
01:12:46.988                   : :Chapter 12
01:17:54.879                   : :Chapter 13
01:24:46.623                   : :Chapter 14
01:28:41.399                   : :Chapter 15
01:33:34.150                   : :Chapter 16
01:38:05.671                   : :Chapter 17
01:41:52.982                   : :Chapter 18
01:48:12.653                   : :Chapter 19
01:53:13.453                   : :Chapter 20
01:59:31.623                   : :Chapter 21
02:05:52.295                   : :Chapter 22
02:09:13.287                   : :Chapter 23
02:13:53.526                   : :Chapter 24
02:23:19.299                   : :Chapter 25
02:28:15.637                   : :Chapter 26
02:34:29.218                   : :Chapter 27
02:38:48.561                   : :Chapter 28