2 Fast 2 Furious 2003 x264 720p Esub BluRay Dual Audio English Hindi Sadeemrdp GOPI SAHI


2 Fast 2 Furious (2003)

Former cop Brian O'Conner is called upon to bust a dangerous criminal and he recruits the help of a former childhood friend and street racer who has a chance to redeem himself.

Director:

John Singleton

Writers:

Gary Scott Thompson (characters), Michael Brandt (story) |4 more credits »

5.9/10
243,920

Directed byJohn Singleton
Produced byNeal H. Moritz
Screenplay by
Story by
Based onCharacters
by Gary Scott Thompson
Starring
Music byDavid Arnold
CinematographyMatthew F. Leonetti
Edited by
Production
company
  • Mikona Productions GmbH & Co. KG
  • Original Film (credited as Neal H. Morriz Productions)
Distributed byUniversal Pictures
Release date
  • June 6, 2003 (United States)
Running time
108 minutes[1]
CountryUnited States
Germany
LanguageEnglish
Budget$76 million[2]
Box office$236.3 million[2]

Format                         : Matroska
Format version                 : Version 4
File size                      : 864 MiB
Duration                       : 1 h 47 min
Overall bit rate               : 1 121 kb/s
Movie name                     : 2 Fast 2 Furious 2003 GOPI SAHI
Encoded date                   : UTC 2020-05-30 16:05:44
Writing application            : mkvmerge v46.0.0 ('No Deeper Escape') 32-bit
Writing library                : libebml v1.3.10 + libmatroska v1.5.2

Video
ID                             : 1
Format                         : AVC
Format/Info                    : Advanced Video Codec
Format profile                 : [email protected]
Format settings                : CABAC / 5 Ref Frames
Format settings, CABAC         : Yes
Format settings, Reference fra : 5 frames
Codec ID                       : V_MPEG4/ISO/AVC
Duration                       : 1 h 47 min
Bit rate                       : 899 kb/s
Width                          : 1 280 pixels
Height                         : 544 pixels
Display aspect ratio           : 2.35:1
Frame rate mode                : Constant
Frame rate                     : 23.976 (24000/1001) FPS
Color space                    : YUV
Chroma subsampling             : 4:2:0
Bit depth                      : 8 bits
Scan type                      : Progressive
Bits/(Pixel*Frame)             : 0.054
Stream size                    : 691 MiB (80%)
Title                          : GOPI SAHI
Writing library                : x264 core 157 r2935 545de2f

Audio #1
ID                             : 2
Format                         : AAC LC
Format/Info                    : Advanced Audio Codec Low Complexity
Codec ID                       : A_AAC-2
Duration                       : 1 h 47 min
Bit rate                       : 96.0 kb/s
Channel(s)                     : 2 channels
Channel layout                 : L R
Sampling rate                  : 48.0 kHz
Frame rate                     : 46.875 FPS (1024 SPF)
Compression mode               : Lossy
Delay relative to video        : -5 ms
Stream size                    : 74.3 MiB (9%)
Title                          : GOPI SAHI
Language                       : Hindi
Default                        : Yes
Forced                         : No

Audio #2
ID                             : 3
Format                         : AAC LC
Format/Info                    : Advanced Audio Codec Low Complexity
Codec ID                       : A_AAC-2
Duration                       : 1 h 47 min
Bit rate                       : 96.0 kb/s
Channel(s)                     : 2 channels
Channel layout                 : L R
Sampling rate                  : 48.0 kHz
Frame rate                     : 46.875 FPS (1024 SPF)
Compression mode               : Lossy
Delay relative to video        : -21 ms
Stream size                    : 74.2 MiB (9%)
Title                          : GOPI SAHI
Language                       : English
Default                        : No
Forced                         : No

Text #1
ID                             : 4
Format                         : PGS
Muxing mode                    : zlib
Codec ID                       : S_HDMV/PGS
Codec ID/Info                  : Picture based subtitle format used on BDs/HD-DVDs
Duration                       : 1 h 47 min
Bit rate                       : 39.5 kb/s
Count of elements              : 2422
Stream size                    : 30.3 MiB (4%)
Title                          : GOPI SAHI
Language                       : Hindi
Default                        : Yes
Forced                         : Yes

Text #2
ID                             : 5
Format                         : PGS
Muxing mode                    : zlib
Codec ID                       : S_HDMV/PGS
Codec ID/Info                  : Picture based subtitle format used on BDs/HD-DVDs
Duration                       : 1 h 20 min
Bit rate                       : 323 b/s
Count of elements              : 30
Stream size                    : 191 KiB (0%)
Title                          : GOPI SAHI
Language                       : Hindi
Default                        : No
Forced                         : No

Text #3
ID                             : 6
Format                         : PGS
Muxing mode                    : zlib
Codec ID                       : S_HDMV/PGS
Codec ID/Info                  : Picture based subtitle format used on BDs/HD-DVDs
Duration                       : 1 h 40 min
Bit rate                       : 36.2 kb/s
Count of elements              : 2481
Stream size                    : 26.0 MiB (3%)
Title                          : GOPI SAHI
Language                       : English
Default                        : No
Forced                         : No

Menu
00:00:00.000                   : :Chapter 1
00:11:29.731                   : :Chapter 2
00:14:20.818                   : :Chapter 3
00:16:02.670                   : :Chapter 4
00:18:57.345                   : :Chapter 5
00:24:23.671                   : :Chapter 6
00:28:16.820                   : :Chapter 7
00:35:14.154                   : :Chapter 8
00:40:08.323                   : :Chapter 9
00:46:44.385                   : :Chapter 10
00:58:55.115                   : :Chapter 11
01:05:03.441                   : :Chapter 12
01:10:25.304                   : :Chapter 13
01:13:38.039                   : :Chapter 14
01:22:15.639                   : :Chapter 15
01:29:54.139                   : :Chapter 16
01:35:17.629                   : :Chapter 17
01:37:33.097                   : :Chapter 18
01:40:33.027                   : :Chapter 19