1 The Fast And The Furious 2001 x264 720p Esub BluRay Dual Audio English Hindi Sadeemrdp GOPI SAHI

The Fast and the Furious (2001)


Los Angeles police officer Brian O'Conner must decide where his loyalty really lies when he becomes enamored with the street racing world he has been sent undercover to destroy.

Director:

Rob Cohen

Writers:

Ken Li (magazine article "Racer X"), Gary Scott Thompson (screen story) |3 more credits »
6.8/10


Directed byRob Cohen[1]
Produced byNeal H. Moritz
Screenplay by
Story byGary Scott Thompson
Starring
Music byBT
CinematographyEricson Core
Edited byPeter Honess
Production
company
Distributed byUniversal Pictures[2]
Release date
  • June 22, 2001 (United States)
Running time
106 minutes[3]
Country
LanguageEnglish
Budget$38 million[3]
Box office$207.3 million[3]



Format                         : Matroska
Format version                 : Version 4
File size                      : 854 MiB
Duration                       : 1 h 46 min
Overall bit rate               : 1 118 kb/s
Movie name                     : The Fast and the Furious 2001 GOPI SAHI
Encoded date                   : UTC 2020-05-30 16:03:43
Writing application            : mkvmerge v46.0.0 ('No Deeper Escape') 32-bit
Writing library                : libebml v1.3.10 + libmatroska v1.5.2

Video
ID                             : 1
Format                         : AVC
Format/Info                    : Advanced Video Codec
Format profile                 : [email protected]
Format settings                : CABAC / 5 Ref Frames
Format settings, CABAC         : Yes
Format settings, Reference fra : 5 frames
Codec ID                       : V_MPEG4/ISO/AVC
Duration                       : 1 h 46 min
Bit rate                       : 899 kb/s
Width                          : 1 280 pixels
Height                         : 544 pixels
Display aspect ratio           : 2.35:1
Frame rate mode                : Constant
Frame rate                     : 23.976 (24000/1001) FPS
Color space                    : YUV
Chroma subsampling             : 4:2:0
Bit depth                      : 8 bits
Scan type                      : Progressive
Bits/(Pixel*Frame)             : 0.054
Stream size                    : 687 MiB (80%)
Title                          : GOPI SAHI
Writing library                : x264 core 157 r2935 545de2f

Audio #1
ID                             : 2
Format                         : AAC LC
Format/Info                    : Advanced Audio Codec Low Complexity
Codec ID                       : A_AAC-2
Duration                       : 1 h 46 min
Bit rate                       : 96.0 kb/s
Channel(s)                     : 2 channels
Channel layout                 : L R
Sampling rate                  : 48.0 kHz
Frame rate                     : 46.875 FPS (1024 SPF)
Compression mode               : Lossy
Delay relative to video        : 950 ms
Stream size                    : 73.8 MiB (9%)
Title                          : GOPI SAHI
Language                       : Hindi
Default                        : Yes
Forced                         : No

Audio #2
ID                             : 3
Format                         : AAC LC
Format/Info                    : Advanced Audio Codec Low Complexity
Codec ID                       : A_AAC-2
Duration                       : 1 h 46 min
Bit rate                       : 96.0 kb/s
Channel(s)                     : 2 channels
Channel layout                 : L R
Sampling rate                  : 48.0 kHz
Frame rate                     : 46.875 FPS (1024 SPF)
Compression mode               : Lossy
Delay relative to video        : -21 ms
Stream size                    : 73.8 MiB (9%)
Title                          : GOPI SAHI
Language                       : English
Default                        : No
Forced                         : No

Text #1
ID                             : 4
Format                         : PGS
Muxing mode                    : zlib
Codec ID                       : S_HDMV/PGS
Codec ID/Info                  : Picture based subtitle format used on BDs/HD-DVDs
Duration                       : 1 h 45 min
Bit rate                       : 33.6 kb/s
Count of elements              : 1736
Stream size                    : 25.4 MiB (3%)
Title                          : GOPI SAHI
Language                       : Hindi
Default                        : Yes
Forced                         : Yes

Text #2
ID                             : 5
Format                         : PGS
Muxing mode                    : zlib
Codec ID                       : S_HDMV/PGS
Codec ID/Info                  : Picture based subtitle format used on BDs/HD-DVDs
Duration                       : 1 h 45 min
Bit rate                       : 457 b/s
Count of elements              : 42
Stream size                    : 354 KiB (0%)
Title                          : GOPI SAHI
Language                       : Hindi
Default                        : No
Forced                         : No

Text #3
ID                             : 6
Format                         : PGS
Muxing mode                    : zlib
Codec ID                       : S_HDMV/PGS
Codec ID/Info                  : Picture based subtitle format used on BDs/HD-DVDs
Duration                       : 1 h 45 min
Bit rate                       : 26.7 kb/s
Count of elements              : 1774
Stream size                    : 20.2 MiB (2%)
Title                          : GOPI SAHI
Language                       : English
Default                        : No
Forced                         : Yes

Menu
00:00:00.000                   : :Chapter 1
00:02:56.885                   : :Chapter 2
00:10:20.245                   : :Chapter 3
00:15:07.573                   : :Chapter 4
00:26:40.516                   : :Chapter 5
00:29:59.214                   : :Chapter 6
00:34:42.956                   : :Chapter 7
00:38:08.495                   : :Chapter 8
00:44:56.402                   : :Chapter 9
00:55:26.490                   : :Chapter 10
00:58:40.434                   : :Chapter 11
01:01:45.744                   : :Chapter 12
01:09:25.119                   : :Chapter 13
01:12:02.026                   : :Chapter 14
01:15:23.769                   : :Chapter 15
01:20:44.173                   : :Chapter 16
01:29:59.811                   : :Chapter 17
01:34:58.443                   : :Chapter 18
01:38:05.463                   : :Chapter 19
01:39:58.117                   : :Chapter 20