Who.Am.I. 1998 720p BluRay x264 Dual Audio Hindi English GOPI SAHI

Who Am I? (1998)

Ngo si seoi (original title)
A Secret Agent loses his memory after falling from a crashing helicopter. He is then chased by several other agency operatives, but he has no idea why.

6.8/10
35,407

Directed by
Produced by
Written by
  • Jackie Chan
  • Susan Chan
  • Lee Reynolds
Starring
Music byNathan Wang
CinematographyPoon Hang Sang
Edited by
  • Peter Cheung
  • Yau Chi Wai
Distributed by
Release date
  • 17 January 1998
Running time
103 minutes[1]
CountryHong Kong
LanguageEnglish[1]
Box officeHK $38,852,845



Who.Am.I. 1998 720p BluRay x264 Dual Audio Hindi English GOPI SAHI

Format                                   : Matroska
Format version                           : Version 4 / Version 2
File size                                : 846 MiB
Duration                                 : 1 h 48 min
Overall bit rate                         : 1 095 kb/s
Movie name                               : Who Am I 1998 GOPI SAHI

Video
Format                                   : AVC
Format/Info                              : Advanced Video Codec
Format profile                           : [email protected]
Format settings                          : CABAC / 5 Ref Frames
Format settings, CABAC                   : Yes
Format settings, ReFrames                : 5 frames
Codec ID                                 : V_MPEG4/ISO/AVC
Duration                                 : 1 h 47 min
Bit rate                                 : 899 kb/s
Width                                    : 1 280 pixels
Height                                   : 722 pixels
Display aspect ratio                     : 16:9
Frame rate mode                          : Constant
Frame rate                               : 23.976 (24000/1001) FPS
Color space                              : YUV
Chroma subsampling                       : 4:2:0
Bit depth                                : 8 bits
Scan type                                : Progressive
Bits/(Pixel*Frame)                       : 0.041
Stream size                              : 694 MiB (82%)
Title                                    : GOPI SAHI
Writing library                          : x264 core 148

Audio #1
Format                                   : AAC
Duration                                 : 1 h 48 min
Bit rate                                 : 96.0 kb/s
Channel(s)                               : 2 channels
Channel positions                        : Front: L R
Sampling rate                            : 48.0 kHz
Frame rate                               : 46.875 FPS (1024 SPF)
Compression mode                         : Lossy
Delay relative to video                  : -64 ms
Stream size                              : 74.5 MiB (9%)
Title                                    : GOPI SAHI
Language                                 : Hindi

Audio #2
Format                                   : AAC
Format/Info                              : Advanced Audio Codec
Duration                                 : 1 h 47 min
Bit rate                                 : 96.0 kb/s
Channel(s)                               : 2 channels
Channel positions                        : Front: L R
Sampling rate                            : 48.0 kHz
Frame rate                               : 46.875 FPS (1024 SPF)
Compression mode                         : Lossy
Delay relative to video                  : -64 ms
Stream size                              : 74.5 MiB (9%)
Title                                    : GOPI SAHI
Language                                 : English