War of the Worlds 2005 x264 720p Esub BluRay Dual Audio English Hindi GOPI SAHI

War of the Worlds (2005)
As Earth is invaded by alien tripod fighting machines, one family fights for survival in this sci-fi action film.

Writers:

Josh Friedman (screenplay), David Koepp (screenplay) |1 more credit »

6.5/10
402,073

Directed bySteven Spielberg
Produced by
Screenplay by
Based onThe War of the Worlds
by H.G. Wells
Starring
Narrated byMorgan Freeman
Music byJohn Williams
CinematographyJanusz Kamiński
Edited byMichael Kahn
Production
company
Distributed by
Release date
Running time
116 minutes
CountryUnited States
LanguageEnglish
Budget$132 million[1]
Box office$603.9 million[1]




War of the Worlds 2005 x264 720p Esub BluRay Dual Audio English Hindi GOPI SAHI

Format                         : Matroska
Format version                 : Version 4
File size                      : 909 MiB
Duration                       : 1 h 56 min
Overall bit rate               : 1 090 kb/s
Movie name                     : War of the Worlds 2005 GOPISAHI

Video
Format                         : AVC
Format/Info                    : Advanced Video Codec
Format profile                 : [email protected]
Format settings                : CABAC / 5 Ref Frames
Format settings, CABAC         : Yes
Format settings, Reference fra : 5 frames
Codec ID                       : V_MPEG4/ISO/AVC
Duration                       : 1 h 56 min
Bit rate                       : 899 kb/s
Width                          : 1 280 pixels
Height                         : 694 pixels
Display aspect ratio           : 1.85:1
Frame rate mode                : Constant
Frame rate                     : 23.976 (24000/1001) FPS
Color space                    : YUV
Chroma subsampling             : 4:2:0
Bit depth                      : 8 bits
Scan type                      : Progressive
Bits/(Pixel*Frame)             : 0.042
Stream size                    : 746 MiB (82%)
Title                          : GOPISAHI
Writing library                : x264 core 157 r2935 545de2f

Audio #1
Format                         : AAC LC
Duration                       : 1 h 56 min
Bit rate                       : 96.0 kb/s
Channel(s)                     : 2 channels
Channel layout                 : L R
Sampling rate                  : 48.0 kHz
Frame rate                     : 46.875 FPS (1024 SPF)
Compression mode               : Lossy
Delay relative to video        : 1 ms
Stream size                    : 80.3 MiB (9%)
Title                          : GOPISAHI
Language                       : Hindi

Audio #2
Format                         : AAC LC
Duration                       : 1 h 56 min
Bit rate                       : 96.0 kb/s
Channel(s)                     : 2 channels
Channel layout                 : L R
Sampling rate                  : 48.0 kHz
Frame rate                     : 46.875 FPS (1024 SPF)
Compression mode               : Lossy
Delay relative to video        : -21 ms
Stream size                    : 80.1 MiB (9%)
Title                          : GOPISAHI
Language                       : English

Text
Language                       : English

Menu
00:00:00.000                   : :Chapter 1
00:04:16.047                   : :Chapter 2
00:08:18.248                   : :Chapter 3
00:13:17.380                   : :Chapter 4
00:19:20.034                   : :Chapter 5
00:25:29.319                   : :Chapter 6
00:29:45.242                   : :Chapter 7
00:34:32.571                   : :Chapter 8
00:38:47.033                   : :Chapter 9
00:43:53.256                   : :Chapter 10
00:49:03.941                   : :Chapter 11
00:55:17.105                   : :Chapter 12
00:59:21.016                   : :Chapter 13
01:04:44.172                   : :Chapter 14
01:10:37.316                   : :Chapter 15
01:15:53.299                   : :Chapter 16
01:20:28.991                   : :Chapter 17
01:24:48.000                   : :Chapter 18
01:29:03.964                   : :Chapter 19
01:33:59.884                   : :Chapter 20
01:36:59.605                   : :Chapter 21
01:41:07.562                   : :Chapter 22
01:45:27.488                   : :Chapter 23
01:49:42.534                   : :Chapter 24