War 2007 X264 720P Esub Bluray Dual Audio English Hindi GOPI SAHI

War (2007)

  
An FBI Agent seeks vengeance on a mysterious assassin known as "Rogue" who murdered his partner.
6.2/10
83,043

Directed byPhilip G. Atwell
Produced bySteve Chasman
Christopher Petzel
Jim Thompson
Written byLee Anthony Smith
Gregory J. Bradley
StarringJet Li
Jason Statham
John Lone
Devon Aoki
Luis Guzmán
Saul Rubinek
Ryo Ishibashi
Sung Kang
Mathew St. Patrick
Nadine Velazquez
Music byBrian Tyler
CinematographyPierre Morel
Edited byScott Richter
Production
company
Lionsgate
Fierce Entertainment
Mosaic Media Group
Distributed byLionsgate
Release date
  • August 24, 2007
Running time
103 minutes
CountryUnited States
LanguageEnglish
Cantonese
Japanese
Mandarin
Budget$25 million[1]
Box office$40.7 million[1]
$27.5 million (domestic DVD sales)[1]
$67.9 million (net gross)[citation needed]



War 2007 x264 720p Esub BluRay Dual Audio English Hindi GOPI SAHI

Format                         : Matroska
Format version                 : Version 4
File size                      : 1.12 GiB
Duration                       : 1 h 42 min
Overall bit rate               : 1 559 kb/s
Movie name                     : War 2007 GOPISAHI

Video
Format                         : AVC
Format/Info                    : Advanced Video Codec
Format profile                 : [email protected]
Format settings                : CABAC / 5 Ref Frames
Format settings, CABAC         : Yes
Format settings, Reference fra : 5 frames
Codec ID                       : V_MPEG4/ISO/AVC
Duration                       : 1 h 42 min
Bit rate                       : 899 kb/s
Width                          : 1 280 pixels
Height                         : 720 pixels
Display aspect ratio           : 16:9
Frame rate mode                : Constant
Frame rate                     : 24.000 FPS
Color space                    : YUV
Chroma subsampling             : 4:2:0
Bit depth                      : 8 bits
Scan type                      : Progressive
Bits/(Pixel*Frame)             : 0.041
Stream size                    : 661 MiB (58%)
Title                          : GOPISAHI
Writing library                : x264 core 157 r2935 545de2f

Audio #1
Format                         : AAC LC
Duration                       : 1 h 42 min
Bit rate                       : 96.0 kb/s
Channel(s)                     : 2 channels
Channel layout                 : L R
Sampling rate                  : 48.0 kHz
Frame rate                     : 46.875 FPS (1024 SPF)
Compression mode               : Lossy
Delay relative to video        : 229 ms
Stream size                    : 71.0 MiB (6%)
Title                          : GOPISAHI
Language                       : Hindi

Audio #2
Format                         : AAC LC
Duration                       : 1 h 42 min
Bit rate                       : 96.0 kb/s
Channel(s)                     : 2 channels
Channel layout                 : L R
Sampling rate                  : 48.0 kHz
Frame rate                     : 46.875 FPS (1024 SPF)
Compression mode               : Lossy
Delay relative to video        : -21 ms
Stream size                    : 71.0 MiB (6%)
Title                          : GOPISAHI
Language                       : English

Text #1
Language                       : English

Text #2
Language                       : English

Text #3
Format                         : PGS
Language                       : English