Top Gun 1986 Special CE x264 720p Esub BluRay Dual Audio English Hindi GOPI SAHI

Top Gun (1986)

PG | |Action, Drama |16
 May 1986 (USA) 
As students at the United States Navy's elite fighter weapons school compete to be best in the class, one daring young pilot learns a few things from a civilian instructor that are not taught in the classroom.

Director:

Tony Scott

6.9/10
277,180

Directed byTony Scott
Produced by
Written by
Based on"Top Guns"
by Ehud Yonay
Starring
Music byHarold Faltermeyer
CinematographyJeffrey L. Kimball
Edited by
Production
company
Distributed byParamount Pictures
Release date
  • May 12, 1986 (New York City)
  • May 16, 1986 (United States)
[1]
Running time
110 minutes
CountryUnited States
LanguageEnglish
Budget$15 million
Box office$356.8 million[1]



Top Gun 1986 Special CE x264 720p Esub BluRay Dual Audio English Hindi GOPI SAHI

Format                         : Matroska
Format version                 : Version 4
File size                      : 858 MiB
Duration                       : 1 h 49 min
Overall bit rate               : 1 095 kb/s
Movie name                     : Top Gun 1986 Special CE GOPISAHI

Video
Format                         : AVC
Format/Info                    : Advanced Video Codec
Format profile                 : [email protected]
Format settings                : CABAC / 5 Ref Frames
Format settings, CABAC         : Yes
Format settings, Reference fra : 5 frames
Codec ID                       : V_MPEG4/ISO/AVC
Duration                       : 1 h 49 min
Bit rate                       : 899 kb/s
Width                          : 1 280 pixels
Height                         : 534 pixels
Display aspect ratio           : 2.40:1
Frame rate mode                : Constant
Frame rate                     : 23.976 (24000/1001) FPS
Color space                    : YUV
Chroma subsampling             : 4:2:0
Bit depth                      : 8 bits
Scan type                      : Progressive
Bits/(Pixel*Frame)             : 0.055
Stream size                    : 705 MiB (82%)
Title                          : GOPISAHI
Writing library                : x264 core 157 r2935 545de2f

Audio #1
Format                         : AAC LC
Duration                       : 1 h 49 min
Bit rate                       : 96.0 kb/s
Channel(s)                     : 2 channels
Channel layout                 : L R
Sampling rate                  : 48.0 kHz
Frame rate                     : 46.875 FPS (1024 SPF)
Compression mode               : Lossy
Delay relative to video        : 6 ms
Stream size                    : 75.4 MiB (9%)
Title                          : GOPISAHI
Language                       : Hindi

Audio #2
Format                         : AAC LC
Format/Info                    : Advanced Audio Codec Low Complexity
Codec ID                       : A_AAC-2
Duration                       : 1 h 49 min
Bit rate                       : 96.0 kb/s
Channel(s)                     : 2 channels
Channel layout                 : L R
Sampling rate                  : 48.0 kHz
Frame rate                     : 46.875 FPS (1024 SPF)
Compression mode               : Lossy
Delay relative to video        : -21 ms
Stream size                    : 75.5 MiB (9%)
Title                          : GOPISAHI
Language                       : English

Text
Language                       : English

Menu
00:00:00.000                   : :Opening Credits
00:02:40.452                   : :Danger Zone
00:12:45.431                   : :Unexpected Visitors
00:19:03.768                   : :Flying on Vapor
00:25:40.497                   : :Dream Shot
00:29:26.640                   : :Fightertown, Usa
00:39:07.470                   : :Target Rich Environment
00:47:59.543                   : :Crash and Burn
00:55:23.111                   : :"Charlie"
01:01:27.851                   : :Turn and Burn
01:03:59.586                   : :No Flexibility
01:13:38.205                   : :Flying Against a Ghost
01:21:09.907                   : :Tempted
01:27:04.970                   : :Playing with the Boys
01:34:19.195                   : :No Apologies
01:41:58.863                   : :Textbook Maneuvers