Titanic 1997 x264 720p Bluray Dual Audio English Hindi Telugu Tamil GOPI SAHI

Titanic (1997)

 
 
A seventeen-year-old aristocrat falls in love with a kind but poor artist aboard the luxurious, ill-fated R.M.S. Titanic.

Director:

James Cameron
7.8/10

Directed byJames Cameron
Produced by
Written byJames Cameron
Starring
Music byJames Horner
CinematographyRussell Carpenter
Edited by
Production
company
Distributed by
  • Paramount Pictures
    (North America)
  • 20th Century Fox
    (International)
Release date
  • November 1, 1997 (Tokyo)
  • December 19, 1997 (United States)
Running time
195 minutes[3]
CountryUnited States
LanguageEnglish
Budget$200 million[4][5][6]
Box office$2.187 billion[7]



Titanic 1997 x264 720p Bluray Dual Audio English Hindi Telugu Tamil GOPI SAHI

Format                         : Matroska
Format version                 : Version 4
File size                      : 1.75 GiB
Duration                       : 3 h 14 min
Overall bit rate               : 1 289 kb/s
Movie name                     : Titanic 1997 x264 720p Esub Bluray Dual Audio English Hindi Telugu Tamil GOPI SAHI

Video
Format                         : AVC
Format/Info                    : Advanced Video Codec
Format profile                 : [email protected]
Format settings                : CABAC / 5 Ref Frames
Format settings, CABAC         : Yes
Format settings, Reference fra : 5 frames
Codec ID                       : V_MPEG4/ISO/AVC
Duration                       : 3 h 14 min
Bit rate                       : 899 kb/s
Width                          : 1 280 pixels
Height                         : 720 pixels
Display aspect ratio           : 16:9
Frame rate mode                : Constant
Frame rate                     : 23.976 (24000/1001) FPS
Color space                    : YUV
Chroma subsampling             : 4:2:0
Bit depth                      : 8 bits
Scan type                      : Progressive
Bits/(Pixel*Frame)             : 0.041
Stream size                    : 1.22 GiB (70%)
Writing library                : x264 core 148

Audio #1
rmat                         : AAC LC
Duration                       : 3 h 14 min
Bit rate                       : 96.0 kb/s
Channel(s)                     : 2 channels
Channel layout                 : L R
Sampling rate                  : 48.0 kHz
Frame rate                     : 46.875 FPS (1024 SPF)
Compression mode               : Lossy
Delay relative to video        : -21 ms
Stream size                    : 134 MiB (7%)
Title                          : GOPISAHI
Language                       : Hindi

Audio #2
Format                         : AAC LC
Format/Info                    : Advanced Audio Codec Low Complexity
Codec ID                       : A_AAC-2
Duration                       : 3 h 14 min
Bit rate                       : 96.0 kb/s
Channel(s)                     : 2 channels
Channel layout                 : L R
Sampling rate                  : 48.0 kHz
Frame rate                     : 46.875 FPS (1024 SPF)
Compression mode               : Lossy
Delay relative to video        : -21 ms
Stream size                    : 134 MiB (7%)
Title                          : GOPISAHI
Language                       : English

Audio #3
Format                         : AAC LC
Duration                       : 3 h 14 min
Bit rate                       : 96.0 kb/s
Channel(s)                     : 2 channels
Channel layout                 : L R
Sampling rate                  : 48.0 kHz
Frame rate                     : 46.875 FPS (1024 SPF)
Compression mode               : Lossy
Delay relative to video        : -21 ms
Stream size                    : 134 MiB (7%)
Title                          : GOPISAHI
Language                       : Tamil

Audio #4
Format                         : AAC LC
Duration                       : 3 h 14 min
Bit rate                       : 96.0 kb/s
Channel(s)                     : 2 channels
Channel layout                 : L R
Sampling rate                  : 48.0 kHz
Frame rate                     : 46.875 FPS (1024 SPF)
Compression mode               : Lossy
Delay relative to video        : -21 ms
Stream size                    : 134 MiB (7%)
Title                          : GOPISAHI
Language                       : Telugu




MAGNET

GDRIVE FILE COPY