Thunderball 1965 x264 720p Esub BluRay Dual Audio English Hindi GOPI SAHI

Thunderball (1965)

James Bond heads to the Bahamas to recover two nuclear warheads stolen by S.P.E.C.T.R.E. Agent Emilio Largo in an international extortion scheme.

Director:

Terence Young

Writers:

Richard Maibaum (screenplay), John Hopkins (screenplay) |4 more credits »
7.0/10

Directed byTerence Young
Produced byKevin McClory
Screenplay byRichard Maibaum
John Hopkins
Based onScreenplay
by Jack Whittingham
Story
by Kevin McClory
Jack Whittingham
Ian Fleming
StarringSean Connery
Claudine Auger
Adolfo Celi
Luciana Paluzzi
Rik Van Nutter
Music byJohn Barry
CinematographyTed Moore
Edited byPeter Hunt
Ernest Hosler
Production
company
Distributed byUnited Artists
Release date
  • 9 December 1965 (Tokyo, premiere)
  • 21 December 1965 (United States)
  • 29 December 1965 (United Kingdom)
Running time
130 minutes
CountryUnited Kingdom
United States
LanguageEnglish
Budget$9 million
Box office$141.2 million





Thunderball 1965 x264 720p Esub BluRay Dual Audio English Hindi GOPI SAHI

Format                         : Matroska
Format version                 : Version 4
File size                      : 1.01 GiB
Duration                       : 2 h 10 min
Overall bit rate               : 1 114 kb/s
Movie name                     : Thunderball 1965 GOPI SAHI

Video
Format                         : AVC
Format/Info                    : Advanced Video Codec
Format profile                 : [email protected]
Format settings                : CABAC / 5 Ref Frames
Format settings, CABAC         : Yes
Format settings, Reference fra : 5 frames
Codec ID                       : V_MPEG4/ISO/AVC
Duration                       : 2 h 10 min
Bit rate                       : 899 kb/s
Width                          : 1 280 pixels
Height                         : 544 pixels
Display aspect ratio           : 2.35:1
Frame rate mode                : Constant
Frame rate                     : 23.976 (24000/1001) FPS
Color space                    : YUV
Chroma subsampling             : 4:2:0
Bit depth                      : 8 bits
Scan type                      : Progressive
Bits/(Pixel*Frame)             : 0.054
Stream size                    : 839 MiB (81%)
Title                          : GOPI SAHI
Writing library                : x264 core 157 r2935 545de2f

Audio #1
Format                         : AAC LC
Duration                       : 2 h 10 min
Bit rate                       : 96.0 kb/s
Channel(s)                     : 2 channels
Channel layout                 : L R
Sampling rate                  : 48.0 kHz
Frame rate                     : 46.875 FPS (1024 SPF)
Compression mode               : Lossy
Delay relative to video        : -21 ms
Stream size                    : 89.8 MiB (9%)
Title                          : GOPI SAHI
Language                       : Hindi

Audio #2
Format                         : AAC LC
Duration                       : 2 h 10 min
Bit rate                       : 96.0 kb/s
Channel(s)                     : 2 channels
Channel layout                 : L R
Sampling rate                  : 48.0 kHz
Frame rate                     : 46.875 FPS (1024 SPF)
Compression mode               : Lossy
Delay relative to video        : -21 ms
Stream size                    : 89.8 MiB (9%)
Title                          : GOPI SAHI
Language                       : English

Text #1
Format                         : PGS

Language                       : Hindi
Text #2
Format                         : PGS
Language                       : English

Text #3
ID                             : 6
Language                       : English