The Willoughbys 2020 x264 720p Esub NF Dual Audio English Hindi GOPI SAHI

The Willoughbys (2020)


Convinced they'd be better off raising themselves, the Willoughby children hatch a sneaky plan to send their selfish parents on vacation. The siblings then embark on their own high-flying adventure to find the true meaning of family.

Writers:

Kris Pearn (screenplay by), Mark Stanleigh (screenplay by) |2 more credits »

7.2/10

Directed byKris Pearn
Produced by
  • Luke Carroll
  • Aaron L. Gilbert
  • Brenda Gilbert
Written by
  • Kris Pearn
  • Mark Stanleigh[1]
Based onThe Willoughbys
by Lois Lowry
Starring
Narrated byRicky Gervais
Music byMark Mothersbaugh[2]
Cinematography
  • Sebastian Brodin
  • Rav Grewal
Edited by
Production
company
Bron Animation
Creative Wealth Media
Distributed byNetflix
Release date
  • April 22, 2020
Running time
92 minutes
CountryCanada
United States
LanguageEnglish



The Willoughbys 2020 x264 720p Esub NF Dual Audio English Hindi GOPI SAHI

Format                                   : Matroska
Format version                           : Version 4 / Version 2
File size                                : 723 MiB
Duration                                 : 1 h 32 min
Overall bit rate                         : 1 095 kb/s
Movie name                               : The Willoughbys 2020 GOPI SAHI

Video
Format                                   : AVC
Format/Info                              : Advanced Video Codec
Format profile                           : [email protected]
Format settings                          : CABAC / 5 Ref Frames
Format settings, CABAC                   : Yes
Format settings, ReFrames                : 5 frames
Codec ID                                 : V_MPEG4/ISO/AVC
Duration                                 : 1 h 32 min
Bit rate                                 : 899 kb/s
Width                                    : 1 280 pixels
Height                                   : 536 pixels
Display aspect ratio                     : 2.40:1
Frame rate mode                          : Constant
Frame rate                               : 24.000 FPS
Color space                              : YUV
Chroma subsampling                       : 4:2:0
Bit depth                                : 8 bits
Scan type                                : Progressive
Bits/(Pixel*Frame)                       : 0.055
Stream size                              : 593 MiB (82%)
Title                                    : GOPI SAHI
Writing library                          : x264 core 148

Audio #1
Format                                   : AAC
Format/Info                              : Advanced Audio Codec
Duration                                 : 1 h 32 min
Bit rate                                 : 96.0 kb/s
Channel(s)                               : 2 channels
Channel positions                        : Front: L R
Sampling rate                            : 48.0 kHz
Frame rate                               : 46.875 FPS (1024 SPF)
Compression mode                         : Lossy
Delay relative to video                  : -21 ms
Stream size                              : 62.7 MiB (9%)
Title                                    : GOPI SAHI
Language                                 : Hindi

Audio #2
Format                                   : AAC
Codec ID                                 : A_AAC-2
Duration                                 : 1 h 32 min
Bit rate                                 : 96.0 kb/s
Channel(s)                               : 2 channels
Channel positions                        : Front: L R
Sampling rate                            : 48.0 kHz
Frame rate                               : 46.875 FPS (1024 SPF)
Compression mode                         : Lossy
Delay relative to video                  : -21 ms
Stream size                              : 62.6 MiB (9%)
Title                                    : GOPI SAHI
Language                                 : English