The Spy Who Loved Me 1977 x264 720p Esub BluRay Dual Audio Hindi English GOPI SAHI

The Spy Who Loved Me (1977)


James Bond investigates the hijacking of British and Russian submarines carrying nuclear warheads, with the help of a K.G.B. Agent, whose lover he killed.

Director:

Lewis Gilbert

Writers:

Christopher Wood (screenplay), Richard Maibaum (screenplay)

7.1/10
94,080

7.1/10
94,080

Directed byLewis Gilbert
Produced byAlbert R. Broccoli
Screenplay byChristopher Wood
Richard Maibaum
StarringRoger Moore
Barbara Bach
Curd Jürgens
Richard Kiel
Music byMarvin Hamlisch
CinematographyClaude Renoir
Edited byJohn Glen
Production
company
Distributed byUnited Artists
Release date
  • 7 July 1977 (London, premiere)
  • 13 July 1977 (USA)
Running time
125 minutes
CountryUnited Kingdom
United States
LanguageEnglish
Budget$13.5 million[1]
Box office$185.4 million




The Spy Who Loved Me 1977 x264 720p Esub BluRay Dual Audio Hindi English GOPI SAHI
Format                         : Matroska
Format version                 : Version 4
File size                      : 995 MiB
Duration                       : 2 h 5 min
Overall bit rate               : 1 107 kb/s
Movie name                     : The Spy Who Loved Me 1977 GOPI SAHI

Video
ID                             : 1
Format                         : AVC
Format/Info                    : Advanced Video Codec
Format profile                 : [email protected]
Format settings                : CABAC / 5 Ref Frames
Format settings, CABAC         : Yes
Format settings, Reference fra : 5 frames
Codec ID                       : V_MPEG4/ISO/AVC
Duration                       : 2 h 5 min
Bit rate                       : 899 kb/s
Width                          : 1 280 pixels
Height                         : 544 pixels
Display aspect ratio           : 2.35:1
Frame rate mode                : Constant
Frame rate                     : 23.976 (24000/1001) FPS
Color space                    : YUV
Chroma subsampling             : 4:2:0
Bit depth                      : 8 bits
Scan type                      : Progressive
Bits/(Pixel*Frame)             : 0.054
Stream size                    : 808 MiB (81%)
Title                          : GOPI SAHI
Writing library                : x264 core 148

Audio #1
Format                         : AAC LC
Duration                       : 2 h 5 min
Bit rate                       : 96.0 kb/s
Channel(s)                     : 2 channels
Channel layout                 : L R
Sampling rate                  : 48.0 kHz
Frame rate                     : 46.875 FPS (1024 SPF)
Compression mode               : Lossy
Delay relative to video        : -21 ms
Stream size                    : 86.7 MiB (9%)
Title                          : GOPI SAHI
Language                       : Hindi

Audio #2
Format                         : AAC LC
Duration                       : 2 h 5 min
Bit rate                       : 96.0 kb/s
Channel(s)                     : 2 channels
Channel layout                 : L R
Sampling rate                  : 48.0 kHz
Frame rate                     : 46.875 FPS (1024 SPF)
Compression mode               : Lossy
Delay relative to video        : -21 ms
Stream size                    : 86.5 MiB (9%)
Title                          : GOPI SAHI
Language                       : English

Text #1
Format                         : PGS
Language                       : English

Text #2
ID                             : 5
Format                         : PGS
Language                       : English