The Hunger Games Mockingjay - Part 2 2015 x264 720p Esub BluRay Dual Audio English Hindi GOPI SAHI

The Hunger Games: Mockingjay - Part 2 (2015)


Katniss and a team of rebels from District 13 prepare for the final battle that will decide the fate of Panem.

Writers:

Peter Craig (screenplay), Danny Strong (screenplay) |2 more credits »

6.5/10
270,591

Directed byFrancis Lawrence
Produced by
Screenplay by
Adaptation by
Based onMockingjay
by Suzanne Collins
Starring
Music byJames Newton Howard
CinematographyJo Willems
Edited by
  • Alan Edward Bell
  • Mark Yoshikawa
Production
company
Distributed byLionsgate
Release date
  • November 4, 2015 (Berlin)
  • November 20, 2015 (United States)
Running time
137 minutes[1][2]
CountryUnited States
LanguageEnglish
Budget$160 million[3]
Box office$658.3 million[4]



The Hunger Games  Mockingjay - Part 2 2015 x264 720p Esub BluRay Dual Audio English Hindi GOPI SAHI

Format                         : Matroska
Format version                 : Version 4
File size                      : 1.07 GiB
Duration                       : 2 h 16 min
Overall bit rate               : 1 119 kb/s
Movie name                     : The Hunger Games  Mockingjay - Part 2 2015 GOPI SAHI

Video
ID                             : 1
Format                         : AVC
Format/Info                    : Advanced Video Codec
Format profile                 : [email protected]
Format settings                : CABAC / 5 Ref Frames
Format settings, CABAC         : Yes
Format settings, Reference fra : 5 frames
Codec ID                       : V_MPEG4/ISO/AVC
Duration                       : 2 h 16 min
Bit rate                       : 899 kb/s
Width                          : 1 280 pixels
Height                         : 534 pixels
Display aspect ratio           : 2.40:1
Frame rate mode                : Constant
Frame rate                     : 23.976 (24000/1001) FPS
Color space                    : YUV
Chroma subsampling             : 4:2:0
Bit depth                      : 8 bits
Scan type                      : Progressive
Bits/(Pixel*Frame)             : 0.055
Stream size                    : 880 MiB (80%)
Title                          : GOPI SAHI
Writing library                : x264 core 148

Audio #1
ID                             : 2
Format                         : AAC LC
Format/Info                    : Advanced Audio Codec Low Complexity
Codec ID                       : A_AAC-2
Duration                       : 2 h 16 min
Bit rate                       : 96.0 kb/s
Channel(s)                     : 2 channels
Channel layout                 : L R
Sampling rate                  : 44.1 kHz
Frame rate                     : 43.066 FPS (1024 SPF)
Compression mode               : Lossy
Delay relative to video        : -7 ms
Stream size                    : 94.4 MiB (9%)
Title                          : GOPI SAHI
Language                       : Hindi
Default                        : Yes
Forced                         : No

Audio #2
ID                             : 3
Format                         : AAC LC
Format/Info                    : Advanced Audio Codec Low Complexity
Codec ID                       : A_AAC-2
Duration                       : 2 h 16 min
Bit rate                       : 96.0 kb/s
Channel(s)                     : 2 channels
Channel layout                 : L R
Sampling rate                  : 48.0 kHz
Frame rate                     : 46.875 FPS (1024 SPF)
Compression mode               : Lossy
Delay relative to video        : 19 ms
Stream size                    : 94.4 MiB (9%)
Title                          : GOPI SAHI
Language                       : English

Text #1
Format                         : PGS
Language                       : English

Text #2
Format                         : PGS
Language                       : English

Menu
00:00:00.000                   : :Chapter 1
00:07:39.292                   : :Chapter 2
00:16:49.342                   : :Chapter 3
00:24:47.194                   : :Chapter 4
00:32:00.127                   : :Chapter 5
00:37:11.855                   : :Chapter 6
00:46:42.842                   : :Chapter 7
00:55:00.964                   : :Chapter 8
01:02:46.429                   : :Chapter 9
01:09:27.580                   : :Chapter 10
01:18:43.052                   : :Chapter 11
01:29:51.219                   : :Chapter 12
01:37:08.323                   : :Chapter 13
01:49:01.869                   : :Chapter 14
01:56:55.800                   : :Chapter 15
02:03:33.239                   : :Chapter 16